当前位置: 首页 >> 国产电影 >> 凡人英雄[国语配音/中文字幕].Reborn.2021.2160p.WEB-DL.H265.AAC-btbt9527.COM 1.35GB >> 正文

凡人英雄[国语配音/中文字幕].Reborn.2021.2160p.WEB-DL.H265.AAC-btbt9527.COM 1.35GB

2021年11月27日 22:32:03     电影发布:来源于网络     电影分类:国产电影     评论(0)    

凡人英雄[国语配音/中文字幕].Reborn.2021.2160p.WEB DL.H265.AAC btbt9527.COM 1.35GB 喜剧片 剧情片 国产电影  第1张

◎译 名 凡人英雄 / REBORN

◎年 代 2021

◎产 地 中国大陆

◎类 别 剧情 / 喜剧

◎语 言 汉语普通话

◎上映日期 2021-11-26(中国大陆网络)

◎IMDb链接 https://www.imdb.com/title//

◎豆瓣链接 https://movie.douban.com/subject/35651759/

◎片 长 110分钟

◎导 演 姚文逸 Wenyi Yao (id:1424517)

◎编 剧 阿蒙 A Meng (id:1352705)

李翔星 (id:1424615)

姚文逸 Wenyi Yao (id:1424517)

◎演 员 喻恩泰 Entai Yu (id:1274271)

衣云鹤 Yunhe Yi (id:1350228)

陈昊 Hao Chen (id:1391980)

白泽泽 Zeze Bai (id:1441799)

小爱 Hao Liu (id:1339968)

陈芋米 Yumi Chen (id:1373780)

吴优 You Wu (id:1348508)

白客 White. K (id:1332932)

杜奕衡 John Do (id:1275965)

罗辑 Ji Luo (id:1417084)

李洪权 Hongquan Li (id:1370851)

孙佳 Jia Sun (id:1317005)

芦洋 (id:1413295)

李静平 (id:1463776)

王雯 (id:1463777)

赖维佳 (id:1463778)

李捷 Jie Li (id:1403835)

陈武东 (id:1463779)

张斌 (id:1463780)

林凯 (id:1463781)

徐天福 Tianfu Xu (id:1449514)

陈胜奇 (id:1463782)

郭夏 (id:1463783)

刘阮玟 (id:1463784)

胡小鸥 Xiaoou Hu (id:1423455)

黎佳能 Canon Lee (id:1448122)

祖新宇 (id:1463787)

徐鑫 (id:1463785)

张洪亮 (id:1463786)

贾海涛 (id:1463789)

李涛 Tao Li (id:1400655)

于健 (id:1463788)

◎标 签 有笑有泪 / 小人物 / 国影 / NN / 待定 / 中国 / 2021

◎简 介

2020年初,新冠疫情在全球范围爆发。本地酒店小老板达志诚(喻恩泰 饰)正想尽一切办法出手亏本了大半年的酒店;研究生江小天(陈昊 饰)怀揣着自己多年研究心血智能机器人冒险来汉参加面试;有着赛车梦想的东北小伙儿刘火火(衣云鹤 饰)在武汉干着一份岌岌可危的闪送员工作。疫情爆发,武汉封城,三个人分别陷入了人生最大的困境。濒临破产、工作泡汤、不幸入院……道路虽难,人生倒也处处充满了温暖和希望,惊喜和力量。三个人的受难记逐渐升级为一场顽强抵抗、乐观逗趣的全民抗疫大联盟战斗。故事以独特视角切入疫情选题,采用幽默诙谐的笔法,三线并进相互勾连的形式,谱写了一幅特殊时期的小人物群像,展现抗疫洪流中既平凡又温暖的人性之光。

  1. ##### MediaInfo ######

  2. General

  3. Complete name : 凡人英雄[email protected]

  4. Format : MPEG-4

  5. Format profile : Base Media

  6. Codec ID : isom (isom/iso2/mp41)

  7. File size : 1.35 GiB

  8. Duration : 1 h 49 min

  9. Overall bit rate mode : Variable

  10. Overall bit rate : 1 752 kb/s

  11. Writing application : Lavf58.17.103


  12. Video

  13. ID : 1

  14. Format : HEVC

  15. Format/Info : High Efficiency Video Coding

  16. Format profile : [email protected]@Main

  17. Codec ID : hev1

  18. Codec ID/Info : High Efficiency Video Coding

  19. Duration : 1 h 49 min

  20. Bit rate : 1 556 kb/s

  21. Width : 3 840 pixels

  22. Height : 2 160 pixels

  23. Display aspect ratio : 16:9

  24. Frame rate mode : Constant

  25. Frame rate : 24.000 FPS

  26. Color space : YUV

  27. Chroma subsampling : 4:2:0

  28. Bit depth : 8 bits

  29. Bits/(Pixel*Frame) : 0.008

  30. Stream size : 1.19 GiB (89%)

  31. Color range : Limited

  32. Color primaries : BT.709

  33. Transfer characteristics : BT.709

  34. Matrix coefficients : BT.709

  35. Codec configuration box : hvcC


  36. Audio

  37. ID : 2

  38. Format : AAC LC

  39. Format/Info : Advanced Audio Codec Low Complexity

  40. Codec ID : mp4a-40-2

  41. Duration : 1 h 49 min

  42. Bit rate mode : Variable

  43. Bit rate : 192 kb/s

  44. Channel(s) : 2 channels

  45. Channel layout : L R

  46. Sampling rate : 44.1 kHz

  47. Frame rate : 43.066 FPS (1024 SPF)

  48. Compression mode : Lossy

  49. Stream size : 149 MiB (11%)

  50. Default : Yes

  51. Alternate group : 1




复制代码



文件下载


除非特别注明,本文『凡人英雄[国语配音/中文字幕].Reborn.2021.2160p.WEB-DL.H265.AAC-btbt9527.COM 1.35GB』来源于互联网机器人自动抓取,非本站原创。 浮游电影网不对本文拥有版权,如有侵犯,请联系邮箱:fuyouu#yandex.com[#换成@]投诉。我们会在15个工作日内删除。 但烦请转载时请标明出处:“本文转载于『浮游电影网』,原文地址:https://www.fuyouu.com/19036.html

评论吧骚年!

发表你的见解   

昵称*

E-mail*(建议输入,以便收到博主回复的提示邮件)

验证码*

您可以使用eMule或eMule Mod(Windows)、aMule(Win、Linux、Mac)等软件下载eD2k链接。。
eMule收藏集(.emulecollection)文件是您选中的所有链接的列表文件。eMule可以直接下载它们。
按住SHIFT键选择可以选中多个选择框。
可用文件名和大小选择器来选择文件。
文件名选择器帮您根据文件名称或后缀来选择文件。不分大小写。
符号使用:
和:空格( )、+
不包含:-
或:|
转义:一对英文引号("");
匹配开头:^
匹配结尾:$
例如:
选中所有名称中包含有“eMule”或“0.49c”字眼,但不包含有“exe”字眼的:emule|0.49c -exe
选中所有名称的开头是“eMule”,结尾是“0.49c”的:^emule 0.49c$
选中所有名称中带有“eMule 0.49c”的(必须是“eMule 0.49c”,中间没有别的字符,不能是“eMule fake 0.49c”),需要转义:"emule 0.49c"
大小选择器帮您根据文件大小选择文件。