当前位置: 首页 >> 欧美电影 >> 毒液2[中文字幕].Venom.Let.There.Be.Carnage.2021.2160p.AMZN.WEB-DL.DDP5.1.HDR.HEVC-btbt9527.COM 10.51GB >> 正文

毒液2[中文字幕].Venom.Let.There.Be.Carnage.2021.2160p.AMZN.WEB-DL.DDP5.1.HDR.HEVC-btbt9527.COM 10.51GB

2021年11月27日 22:29:11     电影发布:来源于网络     电影分类:欧美电影     评论(0)    

毒液2[中文字幕].Venom.Let.There.Be.Carnage.2021.2160p.AMZN.WEB DL.DDP5.1.HDR.HEVC btbt9527.COM 10.51GB 科幻片 惊悚片 动作片 欧美电影  第1张

◎译 名 毒液2 / 毒魔:血战大屠杀(港) / 猛毒2:血蜘蛛(台) / 毒液2:屠杀开始 / 毒液:屠杀开始 / 毒液:放纵屠杀 / 毒液2:屠杀将至 / Venom 2

◎片 名 Venom: Let There Be Carnage

◎年 代 2021

◎产 地 美国

◎类 别 动作 / 科幻 / 惊悚

◎语 言 英语

◎上映日期 2021(中国大陆) / 2021-10-01(美国) / 2021-10(英国)

◎IMDb链接 https://www.imdb.com/title/tt7097896/

◎豆瓣评分 5.1/10 (37494人评价)

◎豆瓣链接 https://movie.douban.com/subject/30382416/

◎片 长 97分钟

◎导 演 安迪·瑟金斯 Andy Serkis (id:1002708)

◎编 剧 凯莉·马塞尔 Kelly Marcel (id:1115889)

汤姆·哈迪 Tom Hardy (id:1049489)

◎演 员 汤姆·哈迪 Tom Hardy (id:1049489)

伍迪·哈里森 Woody Harrelson (id:1053560)

米歇尔·威廉姆斯 Michelle Williams (id:1049491)

娜奥米·哈里斯 Naomie Harris (id:1049542)

瑞德·斯科特 Reid Scott (id:1217248)

斯蒂芬·格拉汉姆 Stephen Graham (id:1025229)

汤姆·赫兰德 Tom Holland (id:1325351)

里斯·谢尔史密斯 Reece Shearsmith (id:1050114)

肖恩·德兰尼 Sean Delaney (id:1392185)

佩吉·陆 Peggy Lu (id:1404224)

劳伦斯·斯佩尔曼 Laurence Spellman (id:1344523)

杰克·班戴拉 Jack Bandeira (id:1425671)

斯克鲁比斯·皮普 Scroobius Pip (id:1355094)

阿姆·阿勒卡迪 Amrou Al-Kadhi (id:1434710)

斯图尔特·亚历山大 Stewart Alexander (id:1458669)

克里斯托弗戈德温 Christopher Godwin (id:1101537)

格雷戈·洛基特 Greg Lockett (id:1367750)

桑尼·阿什本·瑟金斯 Sonny Ashbourne Serkis (id:1332232)

雷切尔·汉德肖 Rachel Handshaw (id:1433060)

小田部阿基 Akie Kotabe (id:1231929)

埃里克·西格蒙德森 Eric Sigmundsson (id:1389496)

何塞?帕尔马 Jose Palma (id:1418875)

Rosie Marcel Rosie Marcel (id:1122307)

艾略特·凯博尔 Elliot Cable (id:1443254)

威廉·W·巴伯 William W. Barbour (id:1393373)

埃尔文·费利西达 Erwin Felicilda (id:1434119)

露丝·霍洛克斯 Ruth Horrocks (id:1397361)

约翰·洛巴托 John Lobato (id:1408760)

迪索·拉莫斯 Diezel Ramos (id:1341036)

迈克尔·安德鲁·里德 Michael Andrew Reed (id:1255513)

里克·理查森 Rick Richardson (id:1393387)

安珀·西耶娜 Amber Sienna (id:1434120)

艾蒂安·维克 Etienne Vick (id:1373172)

杰茜·维宁 Jessie Vinning (id:1392997)

中川翔子 Sh?ko Nakagawa (id:1045691)

乔纳森·卡文迪许 Jonathan Cavendish (id:1280329)

凯莉·马塞尔 Kelly Marcel (id:1115889)

艾米·帕斯卡尔 Amy Pascal (id:1387575)

马可·贝尔崔米 Marco Beltrami (id:1027998)

罗伯特·理查森 Robert Richardson (id:1050019)

露西·贝文 Lucy Bevan (id:1423431)

奥利弗·肖尔 Oliver Scholl (id:1421437)

汤姆·布朗 Tom Brown (id:1055694)

迈克尔·E·戈德曼 Michael E. Goldman (id:1033881)

西蒙·拉蒙 Simon Lamont (id:1289333)

马尔科姆·斯托 Malcolm Stone (id:1298501)

Joanna Eatwell Joanna Eatwell (id:1450780)

◎标 签 漫威 / 毒液 / 科幻 / 超级英雄 / 美国 / 动作 / 2021 / 漫画改编

◎简 介

电影讲述了外星共生体“毒液”与宿主埃迪(汤姆·哈迪 饰)这对“最佳拍档”遇上致命反派共生体“卡内奇”(伍迪·哈里森 饰),超级英雄和邪恶反派的宿命之战即将开始。

◎获奖情况 (共2项)

第7届豆瓣电影年度榜单 (2020)

最值得期待的外语电影(提名)

第6届豆瓣电影年度榜单 (2019)

最值得期待的外语电影(提名)

  1. ##### MediaInfo ######

  2. General

  3. Unique ID : 263294371777436055453115733234336617136 (0xC614A6C75BF0288B06D0CB2695AB52B0)

  4. Complete name : Venom.Le[email protected]BBQDDQ.COM.mkv

  5. Format : Matroska

  6. Format version : Version 4

  7. File size : 10.5 GiB

  8. Duration : 1 h 37 min

  9. Overall bit rate : 15.5 Mb/s

  10. Encoded date : UTC 2021-11-24 15:45:37

  11. Writing application : mkvmerge v20.0.0 ('I Am The Sun') 64-bit

  12. Writing library : libebml v1.3.5 + libmatroska v1.4.8


  13. Video

  14. ID : 1

  15. Format : HEVC

  16. Format/Info : High Efficiency Video Coding

  17. Format profile : Main [email protected]@Main

  18. HDR format : SMPTE ST 2094 App 4, Version 1, HDR10+ Profile B compatible

  19. Codec ID : V_MPEGH/ISO/HEVC

  20. Duration : 1 h 37 min

  21. Bit rate : 14.8 Mb/s

  22. Width : 3 840 pixels

  23. Height : 2 080 pixels

  24. Display aspect ratio : 1.85:1

  25. Frame rate mode : Constant

  26. Frame rate : 23.976 (24000/1001/53354) FPS

  27. Color space : YUV

  28. Chroma subsampling : 4:2:0

  29. Bit depth : 10 bits

  30. Bits/(Pixel*Frame) : 0.077

  31. Stream size : 10.0 GiB (96%)

  32. Default : Yes

  33. Forced : No

  34. Color range : Limited

  35. Color primaries : BT.2020

  36. Transfer characteristics : PQ

  37. Matrix coefficients : BT.2020 non-constant

  38. Mastering display color primaries : BT.2020

  39. Mastering display luminance : min: 0.0001 cd/m2, max: 1000 cd/m2

  40. Maximum Content Light Level : 5681 cd/m2

  41. Maximum Frame-Average Light Level : 522 cd/m2


  42. Audio

  43. ID : 2

  44. Format : E-AC-3

  45. Format/Info : Enhanced AC-3

  46. Commercial name : Dolby Digital Plus

  47. Codec ID : A_EAC3

  48. Duration : 1 h 37 min

  49. Bit rate mode : Constant

  50. Bit rate : 640 kb/s

  51. Channel(s) : 6 channels

  52. Channel layout : L R C LFE Ls Rs

  53. Sampling rate : 48.0 kHz

  54. Frame rate : 31.250 FPS (1536 SPF)

  55. Compression mode : Lossy

  56. Stream size : 445 MiB (4%)

  57. Title : English

  58. Language : English

  59. Service kind : Complete Main

  60. Default : Yes

  61. Forced : No


  62. Text #1

  63. ID : 3

  64. Format : PGS

  65. Muxing mode : zlib

  66. Codec ID : S_HDMV/PGS

  67. Codec ID/Info : Picture based subtitle format used on BDs/HD-DVDs

  68. Duration : 1 h 27 min

  69. Bit rate : 36.8 kb/s

  70. Count of elements : 2231

  71. Stream size : 23.1 MiB (0%)

  72. Title : 简英

  73. Language : Chinese

  74. Default : Yes

  75. Forced : No


  76. Text #2

  77. ID : 4

  78. Format : PGS

  79. Muxing mode : zlib

  80. Codec ID : S_HDMV/PGS

  81. Codec ID/Info : Picture based subtitle format used on BDs/HD-DVDs

  82. Duration : 1 h 27 min

  83. Bit rate : 19.6 kb/s

  84. Count of elements : 2231

  85. Stream size : 12.3 MiB (0%)

  86. Title : 简中

  87. Language : Chinese

  88. Default : No

  89. Forced : No


  90. Text #3

  91. ID : 5

  92. Format : PGS

  93. Muxing mode : zlib

  94. Codec ID : S_HDMV/PGS

  95. Codec ID/Info : Picture based subtitle format used on BDs/HD-DVDs

  96. Duration : 1 h 27 min

  97. Bit rate : 37.3 kb/s

  98. Count of elements : 2231

  99. Stream size : 23.4 MiB (0%)

  100. Title : 繁英

  101. Language : Chinese

  102. Default : No

  103. Forced : No


  104. Text #4

  105. ID : 6

  106. Format : PGS

  107. Muxing mode : zlib

  108. Codec ID : S_HDMV/PGS

  109. Codec ID/Info : Picture based subtitle format used on BDs/HD-DVDs

  110. Duration : 1 h 27 min

  111. Bit rate : 20.0 kb/s

  112. Count of elements : 2231

  113. Stream size : 12.6 MiB (0%)

  114. Title : 繁中

  115. Language : Chinese

  116. Default : No

  117. Forced : No


  118. Text #5

  119. ID : 7

  120. Format : UTF-8

  121. Codec ID : S_TEXT/UTF8

  122. Codec ID/Info : UTF-8 Plain Text

  123. Duration : 1 h 36 min

  124. Bit rate : 56 b/s

  125. Count of elements : 1658

  126. Stream size : 40.0 KiB (0%)

  127. Title : English

  128. Language : English

  129. Default : No

  130. Forced : No


  131. Text #6

  132. ID : 8

  133. Format : UTF-8

  134. Codec ID : S_TEXT/UTF8

  135. Codec ID/Info : UTF-8 Plain Text

  136. Duration : 1 h 36 min

  137. Bit rate : 71 b/s

  138. Count of elements : 1863

  139. Stream size : 50.5 KiB (0%)

  140. Title : English [SDH]

  141. Language : English

  142. Default : No

  143. Forced : No




复制代码



文件下载


除非特别注明,本文『毒液2[中文字幕].Venom.Let.There.Be.Carnage.2021.2160p.AMZN.WEB-DL.DDP5.1.HDR.HEVC-btbt9527.COM 10.51GB』来源于互联网机器人自动抓取,非本站原创。 浮游电影网不对本文拥有版权,如有侵犯,请联系邮箱:fuyouu#yandex.com[#换成@]投诉。我们会在15个工作日内删除。 但烦请转载时请标明出处:“本文转载于『浮游电影网』,原文地址:https://www.fuyouu.com/19034.html

评论吧骚年!

发表你的见解   

昵称*

E-mail*(建议输入,以便收到博主回复的提示邮件)

验证码*

您可以使用eMule或eMule Mod(Windows)、aMule(Win、Linux、Mac)等软件下载eD2k链接。。
eMule收藏集(.emulecollection)文件是您选中的所有链接的列表文件。eMule可以直接下载它们。
按住SHIFT键选择可以选中多个选择框。
可用文件名和大小选择器来选择文件。
文件名选择器帮您根据文件名称或后缀来选择文件。不分大小写。
符号使用:
和:空格( )、+
不包含:-
或:|
转义:一对英文引号("");
匹配开头:^
匹配结尾:$
例如:
选中所有名称中包含有“eMule”或“0.49c”字眼,但不包含有“exe”字眼的:emule|0.49c -exe
选中所有名称的开头是“eMule”,结尾是“0.49c”的:^emule 0.49c$
选中所有名称中带有“eMule 0.49c”的(必须是“eMule 0.49c”,中间没有别的字符,不能是“eMule fake 0.49c”),需要转义:"emule 0.49c"
大小选择器帮您根据文件大小选择文件。