当前位置: 首页 >> 欧美电影 >> 圣诞男孩[国语配音/中文字幕].A.Boy.Called.Christmas.2021.1080p.HDR.NF.WEB-DL.DDP5.1.Atmos.HEVC 16.93GB >> 正文

圣诞男孩[国语配音/中文字幕].A.Boy.Called.Christmas.2021.1080p.HDR.NF.WEB-DL.DDP5.1.Atmos.HEVC 16.93GB

2021年11月27日 22:25:56     电影发布:来源于网络     电影分类:欧美电影     评论(0)    

圣诞男孩[国语配音/中文字幕].A.Boy.Called.Christmas.2021.1080p.HDR.NF.WEB DL.DDP5.1.Atmos.HEVC 16.93GB 家庭片 奇幻片 冒险片 剧情片 欧美电影  第1张

◎译 名 圣诞男孩

◎片 名 A Boy Called Christmas

◎年 代 2021

◎产 地 英国

◎类 别 剧情 / 家庭 / 奇幻 / 冒险

◎语 言 英语

◎上映日期 2021-11-24(美国网络)

◎IMDb链接 https://www.imdb.com/title/tt10187208/

◎豆瓣链接 https://movie.douban.com/subject/33411411/

◎导 演 吉尔·克兰 Gil Kenan (id:1028045)

◎编 剧 欧·帕克 Ol Parker (id:1319911)

吉尔·克兰 Gil Kenan (id:1028045)

◎演 员 玛吉·史密斯 Maggie Smith (id:1013798)

亨利·劳福 Henry Lawfull (id:1462473)

莎莉·霍金斯 Sally Hawkins (id:1044915)

克里斯汀·韦格 Kristen Wiig (id:1022588)

米希尔·赫伊斯曼 Michiel Huisman (id:1009362)

托比·琼斯 Toby Jones (id:1107884)

斯戴芬·莫昌特 Stephen Merchant (id:1036473)

吉姆·布劳德本特 Jim Broadbent (id:1019049)

佐伊·玛格丽特·科莱蒂 Zoe Margaret Colletti (id:1345006)

鲁内·泰特 Rune Temte (id:1412749)

印迪卡·沃森 Indica Watson (id:1396498)

彼得·霍斯金 Peter Hosking (id:1097845)

肯德里克·昂 Kendrick Ong (id:1266073)

崔西·奥斯蒙德 Trish Osmond (id:1443755)

达里奥·马里安奈利 Dario Marianelli (id:1018392)

◎标 签 英国 / 奇幻 / 2021 / 英国电影 / 玛吉·史密斯 / 莎莉·霍金斯 / 改编 / 冒险

◎简 介

吉姆·布劳德本特、克里斯汀·韦格、莎莉·霍金斯、玛吉·史密斯加盟影片[圣诞男孩](A Boy Called Christmas,暂译),其他卡司包括佐伊·玛格丽特·科莱蒂([狂野生活])、托比·琼斯([金发缪斯])、米契尔·哈思曼(《鬼入侵》)等。吉尔·克兰([怪兽屋])执导,吉尔与欧·帕克([涉外大饭店])共同操刀剧本。

故事改编自马特·海格同名畅销书,讲述11岁的尼古拉斯和父亲住在一起,尼古拉斯最好的伙伴是一只小老鼠。有一天,父亲接到一项神秘的任务,不得不离家远行。姑妈来到家里照顾尼古拉斯。姑妈并不喜欢他,而且把尼古拉斯妈妈留下的唯一的玩具毁掉了。尼古拉斯和小老鼠离家出走,去寻找父亲。他在路上认识了一头驯鹿,彼此成为了朋友。他骑着驯鹿,开始了寻找“妖精堡”的奇幻之旅。

影片目前已开拍。Studiocanal负责影片澳大利亚、中国、法国、新西兰、英...

  1. ##### MediaInfo ######

  2. General

  3. Unique ID : 17877517991086205234318390226243218510 (0xD7315B068AA75C2667A7CE304B6EC4E)

  4. Complete name : A.Boy.Ca[email protected]BBQDDQ.COM.mkv

  5. Format : Matroska

  6. Format version : Version 4

  7. File size : 16.9 GiB

  8. Duration : 1 h 46 min

  9. Overall bit rate : 22.7 Mb/s

  10. Encoded date : UTC 2021-11-25 10:46:36

  11. Writing application : mkvmerge v44.0.0 ('Domino') 64-bit

  12. Writing library : libebml v1.3.10 + libmatroska v1.5.2


  13. Video

  14. ID : 1

  15. Format : HEVC

  16. Format/Info : High Efficiency Video Coding

  17. Format profile : Main [email protected]@Main

  18. HDR format : SMPTE ST 2086, HDR10 compatible

  19. Codec ID : V_MPEGH/ISO/HEVC

  20. Duration : 1 h 43 min

  21. Bit rate : 4 792 kb/s

  22. Width : 1 920 pixels

  23. Height : 1 080 pixels

  24. Display aspect ratio : 16:9

  25. Frame rate mode : Constant

  26. Frame rate : 24.000 FPS

  27. Color space : YUV

  28. Chroma subsampling : 4:2:0 (Type 2)

  29. Bit depth : 10 bits

  30. Bits/(Pixel*Frame) : 0.096

  31. Stream size : 3.46 GiB (20%)

  32. Default : Yes

  33. Forced : No

  34. Color range : Limited

  35. Color primaries : BT.2020

  36. Transfer characteristics : PQ

  37. Matrix coefficients : BT.2020 non-constant

  38. Mastering display color primaries : Display P3

  39. Mastering display luminance : min: 0.0050 cd/m2, max: 4000 cd/m2

  40. Maximum Content Light Level : 1306 cd/m2

  41. Maximum Frame-Average Light Level : 399 cd/m2


  42. Audio #1

  43. ID : 2

  44. Format : E-AC-3 JOC

  45. Format/Info : Enhanced AC-3 with Joint Object Coding

  46. Commercial name : Dolby Digital Plus with Dolby Atmos

  47. Codec ID : A_EAC3

  48. Duration : 1 h 46 min

  49. Bit rate mode : Constant

  50. Bit rate : 768 kb/s

  51. Channel(s) : 6 channels

  52. Channel layout : L R C LFE Ls Rs

  53. Sampling rate : 48.0 kHz

  54. Frame rate : 31.250 FPS (1536 SPF)

  55. Compression mode : Lossy

  56. Stream size : 586 MiB (3%)

  57. Title : English

  58. Language : English

  59. Service kind : Complete Main

  60. Default : Yes

  61. Forced : No

  62. Complexity index : 16

  63. Number of dynamic objects : 15

  64. Bed channel count : 1 channel

  65. Bed channel configuration : LFE


  66. Audio #2

  67. ID : 3

  68. Format : E-AC-3

  69. Format/Info : Enhanced AC-3

  70. Commercial name : Dolby Digital Plus

  71. Codec ID : A_EAC3

  72. Duration : 1 h 46 min

  73. Bit rate mode : Constant

  74. Bit rate : 640 kb/s

  75. Channel(s) : 6 channels

  76. Channel layout : L R C LFE Ls Rs

  77. Sampling rate : 48.0 kHz

  78. Frame rate : 31.250 FPS (1536 SPF)

  79. Compression mode : Lossy

  80. Stream size : 489 MiB (3%)

  81. Title : Arabic

  82. Language : Arabic

  83. Service kind : Complete Main

  84. Default : No

  85. Forced : No


  86. Audio #3

  87. ID : 4

  88. Format : E-AC-3

  89. Format/Info : Enhanced AC-3

  90. Commercial name : Dolby Digital Plus

  91. Codec ID : A_EAC3

  92. Duration : 1 h 46 min

  93. Bit rate mode : Constant

  94. Bit rate : 640 kb/s

  95. Channel(s) : 6 channels

  96. Channel layout : L R C LFE Ls Rs

  97. Sampling rate : 48.0 kHz

  98. Frame rate : 31.250 FPS (1536 SPF)

  99. Compression mode : Lossy

  100. Stream size : 489 MiB (3%)

  101. Title : Croatian

  102. Language : Croatian

  103. Service kind : Complete Main

  104. Default : No

  105. Forced : No


  106. Audio #4

  107. ID : 5

  108. Format : E-AC-3

  109. Format/Info : Enhanced AC-3

  110. Commercial name : Dolby Digital Plus

  111. Codec ID : A_EAC3

  112. Duration : 1 h 46 min

  113. Bit rate mode : Constant

  114. Bit rate : 640 kb/s

  115. Channel(s) : 6 channels

  116. Channel layout : L R C LFE Ls Rs

  117. Sampling rate : 48.0 kHz

  118. Frame rate : 31.250 FPS (1536 SPF)

  119. Compression mode : Lossy

  120. Stream size : 489 MiB (3%)

  121. Title : Czech

  122. Language : Czech

  123. Service kind : Complete Main

  124. Default : No

  125. Forced : No


  126. Audio #5

  127. ID : 6

  128. Format : E-AC-3

  129. Format/Info : Enhanced AC-3

  130. Commercial name : Dolby Digital Plus

  131. Codec ID : A_EAC3

  132. Duration : 1 h 46 min

  133. Bit rate mode : Constant

  134. Bit rate : 640 kb/s

  135. Channel(s) : 6 channels

  136. Channel layout : L R C LFE Ls Rs

  137. Sampling rate : 48.0 kHz

  138. Frame rate : 31.250 FPS (1536 SPF)

  139. Compression mode : Lossy

  140. Stream size : 489 MiB (3%)

  141. Title : Danish

  142. Language : Danish

  143. Service kind : Complete Main

  144. Default : No

  145. Forced : No


  146. Audio #6

  147. ID : 7

  148. Format : E-AC-3

  149. Format/Info : Enhanced AC-3

  150. Commercial name : Dolby Digital Plus

  151. Codec ID : A_EAC3

  152. Duration : 1 h 46 min

  153. Bit rate mode : Constant

  154. Bit rate : 640 kb/s

  155. Channel(s) : 6 channels

  156. Channel layout : L R C LFE Ls Rs

  157. Sampling rate : 48.0 kHz

  158. Frame rate : 31.250 FPS (1536 SPF)

  159. Compression mode : Lossy

  160. Stream size : 489 MiB (3%)

  161. Title : Dutch

  162. Language : Dutch

  163. Service kind : Complete Main

  164. Default : No

  165. Forced : No


  166. Audio #7

  167. ID : 8

  168. Format : E-AC-3

  169. Format/Info : Enhanced AC-3

  170. Commercial name : Dolby Digital Plus

  171. Codec ID : A_EAC3

  172. Duration : 1 h 46 min

  173. Bit rate mode : Constant

  174. Bit rate : 640 kb/s

  175. Channel(s) : 6 channels

  176. Channel layout : L R C LFE Ls Rs

  177. Sampling rate : 48.0 kHz

  178. Frame rate : 31.250 FPS (1536 SPF)

  179. Compression mode : Lossy

  180. Stream size : 489 MiB (3%)

  181. Title : Finnish

  182. Language : Finnish

  183. Service kind : Complete Main

  184. Default : No

  185. Forced : No


  186. Audio #8

  187. ID : 9

  188. Format : E-AC-3

  189. Format/Info : Enhanced AC-3

  190. Commercial name : Dolby Digital Plus

  191. Codec ID : A_EAC3

  192. Duration : 1 h 46 min

  193. Bit rate mode : Constant

  194. Bit rate : 640 kb/s

  195. Channel(s) : 6 channels

  196. Channel layout : L R C LFE Ls Rs

  197. Sampling rate : 48.0 kHz

  198. Frame rate : 31.250 FPS (1536 SPF)

  199. Compression mode : Lossy

  200. Stream size : 489 MiB (3%)

  201. Title : Greek

  202. Language : Greek

  203. Service kind : Complete Main

  204. Default : No

  205. Forced : No


  206. Audio #9

  207. ID : 10

  208. Format : E-AC-3

  209. Format/Info : Enhanced AC-3

  210. Commercial name : Dolby Digital Plus

  211. Codec ID : A_EAC3

  212. Duration : 1 h 46 min

  213. Bit rate mode : Constant

  214. Bit rate : 640 kb/s

  215. Channel(s) : 6 channels

  216. Channel layout : L R C LFE Ls Rs

  217. Sampling rate : 48.0 kHz

  218. Frame rate : 31.250 FPS (1536 SPF)

  219. Compression mode : Lossy

  220. Stream size : 489 MiB (3%)

  221. Title : Hebrew

  222. Language : Hebrew

  223. Service kind : Complete Main

  224. Default : No

  225. Forced : No


  226. Audio #10

  227. ID : 11

  228. Format : E-AC-3

  229. Format/Info : Enhanced AC-3

  230. Commercial name : Dolby Digital Plus

  231. Codec ID : A_EAC3

  232. Duration : 1 h 46 min

  233. Bit rate mode : Constant

  234. Bit rate : 640 kb/s

  235. Channel(s) : 6 channels

  236. Channel layout : L R C LFE Ls Rs

  237. Sampling rate : 48.0 kHz

  238. Frame rate : 31.250 FPS (1536 SPF)

  239. Compression mode : Lossy

  240. Stream size : 489 MiB (3%)

  241. Title : Hindi

  242. Language : Hindi

  243. Service kind : Complete Main

  244. Default : No

  245. Forced : No


  246. Audio #11

  247. ID : 12

  248. Format : E-AC-3

  249. Format/Info : Enhanced AC-3

  250. Commercial name : Dolby Digital Plus

  251. Codec ID : A_EAC3

  252. Duration : 1 h 46 min

  253. Bit rate mode : Constant

  254. Bit rate : 640 kb/s

  255. Channel(s) : 6 channels

  256. Channel layout : L R C LFE Ls Rs

  257. Sampling rate : 48.0 kHz

  258. Frame rate : 31.250 FPS (1536 SPF)

  259. Compression mode : Lossy

  260. Stream size : 489 MiB (3%)

  261. Title : Hungarian

  262. Language : Hungarian

  263. Service kind : Complete Main

  264. Default : No

  265. Forced : No


  266. Audio #12

  267. ID : 13

  268. Format : E-AC-3

  269. Format/Info : Enhanced AC-3

  270. Commercial name : Dolby Digital Plus

  271. Codec ID : A_EAC3

  272. Duration : 1 h 46 min

  273. Bit rate mode : Constant

  274. Bit rate : 640 kb/s

  275. Channel(s) : 6 channels

  276. Channel layout : L R C LFE Ls Rs

  277. Sampling rate : 48.0 kHz

  278. Frame rate : 31.250 FPS (1536 SPF)

  279. Compression mode : Lossy

  280. Stream size : 489 MiB (3%)

  281. Title : Indonesian

  282. Language : Indonesian

  283. Service kind : Complete Main

  284. Default : No

  285. Forced : No


  286. Audio #13

  287. ID : 14

  288. Format : E-AC-3

  289. Format/Info : Enhanced AC-3

  290. Commercial name : Dolby Digital Plus

  291. Codec ID : A_EAC3

  292. Duration : 1 h 46 min

  293. Bit rate mode : Constant

  294. Bit rate : 640 kb/s

  295. Channel(s) : 6 channels

  296. Channel layout : L R C LFE Ls Rs

  297. Sampling rate : 48.0 kHz

  298. Frame rate : 31.250 FPS (1536 SPF)

  299. Compression mode : Lossy

  300. Stream size : 489 MiB (3%)

  301. Title : Italian

  302. Language : Italian

  303. Service kind : Complete Main

  304. Default : No

  305. Forced : No


  306. Audio #14

  307. ID : 15

  308. Format : E-AC-3

  309. Format/Info : Enhanced AC-3

  310. Commercial name : Dolby Digital Plus

  311. Codec ID : A_EAC3

  312. Duration : 1 h 46 min

  313. Bit rate mode : Constant

  314. Bit rate : 640 kb/s

  315. Channel(s) : 6 channels

  316. Channel layout : L R C LFE Ls Rs

  317. Sampling rate : 48.0 kHz

  318. Frame rate : 31.250 FPS (1536 SPF)

  319. Compression mode : Lossy

  320. Stream size : 489 MiB (3%)

  321. Title : Japanese

  322. Language : Japanese

  323. Service kind : Complete Main

  324. Default : No

  325. Forced : No


  326. Audio #15

  327. ID : 16

  328. Format : E-AC-3

  329. Format/Info : Enhanced AC-3

  330. Commercial name : Dolby Digital Plus

  331. Codec ID : A_EAC3

  332. Duration : 1 h 46 min

  333. Bit rate mode : Constant

  334. Bit rate : 640 kb/s

  335. Channel(s) : 6 channels

  336. Channel layout : L R C LFE Ls Rs

  337. Sampling rate : 48.0 kHz

  338. Frame rate : 31.250 FPS (1536 SPF)

  339. Compression mode : Lossy

  340. Stream size : 489 MiB (3%)

  341. Title : Korean

  342. Language : Korean

  343. Service kind : Complete Main

  344. Default : No

  345. Forced : No


  346. Audio #16

  347. ID : 17

  348. Format : E-AC-3

  349. Format/Info : Enhanced AC-3

  350. Commercial name : Dolby Digital Plus

  351. Codec ID : A_EAC3

  352. Duration : 1 h 46 min

  353. Bit rate mode : Constant

  354. Bit rate : 640 kb/s

  355. Channel(s) : 6 channels

  356. Channel layout : L R C LFE Ls Rs

  357. Sampling rate : 48.0 kHz

  358. Frame rate : 31.250 FPS (1536 SPF)

  359. Compression mode : Lossy

  360. Stream size : 489 MiB (3%)

  361. Title : Malay

  362. Language : Malay

  363. Service kind : Complete Main

  364. Default : No

  365. Forced : No


  366. Audio #17

  367. ID : 18

  368. Format : E-AC-3

  369. Format/Info : Enhanced AC-3

  370. Commercial name : Dolby Digital Plus

  371. Codec ID : A_EAC3

  372. Duration : 1 h 46 min

  373. Bit rate mode : Constant

  374. Bit rate : 640 kb/s

  375. Channel(s) : 6 channels

  376. Channel layout : L R C LFE Ls Rs

  377. Sampling rate : 48.0 kHz

  378. Frame rate : 31.250 FPS (1536 SPF)

  379. Compression mode : Lossy

  380. Stream size : 489 MiB (3%)

  381. Title : Mandarin

  382. Language : Chinese

  383. Service kind : Complete Main

  384. Default : No

  385. Forced : No


  386. Audio #18

  387. ID : 19

  388. Format : E-AC-3

  389. Format/Info : Enhanced AC-3

  390. Commercial name : Dolby Digital Plus

  391. Codec ID : A_EAC3

  392. Duration : 1 h 46 min

  393. Bit rate mode : Constant

  394. Bit rate : 640 kb/s

  395. Channel(s) : 6 channels

  396. Channel layout : L R C LFE Ls Rs

  397. Sampling rate : 48.0 kHz

  398. Frame rate : 31.250 FPS (1536 SPF)

  399. Compression mode : Lossy

  400. Stream size : 489 MiB (3%)

  401. Title : Norwegian

  402. Language : Norwegian

  403. Service kind : Complete Main

  404. Default : No

  405. Forced : No


  406. Audio #19

  407. ID : 20

  408. Format : E-AC-3

  409. Format/Info : Enhanced AC-3

  410. Commercial name : Dolby Digital Plus

  411. Codec ID : A_EAC3

  412. Duration : 1 h 46 min

  413. Bit rate mode : Constant

  414. Bit rate : 640 kb/s

  415. Channel(s) : 6 channels

  416. Channel layout : L R C LFE Ls Rs

  417. Sampling rate : 48.0 kHz

  418. Frame rate : 31.250 FPS (1536 SPF)

  419. Compression mode : Lossy

  420. Stream size : 489 MiB (3%)

  421. Title : Polish

  422. Language : Polish

  423. Service kind : Complete Main

  424. Default : No

  425. Forced : No


  426. Audio #20

  427. ID : 21

  428. Format : E-AC-3

  429. Format/Info : Enhanced AC-3

  430. Commercial name : Dolby Digital Plus

  431. Codec ID : A_EAC3

  432. Duration : 1 h 46 min

  433. Bit rate mode : Constant

  434. Bit rate : 640 kb/s

  435. Channel(s) : 6 channels

  436. Channel layout : L R C LFE Ls Rs

  437. Sampling rate : 48.0 kHz

  438. Frame rate : 31.250 FPS (1536 SPF)

  439. Compression mode : Lossy

  440. Stream size : 489 MiB (3%)

  441. Title : Portuguese

  442. Language : Portuguese

  443. Service kind : Complete Main

  444. Default : No

  445. Forced : No


  446. Audio #21

  447. ID : 22

  448. Format : E-AC-3

  449. Format/Info : Enhanced AC-3

  450. Commercial name : Dolby Digital Plus

  451. Codec ID : A_EAC3

  452. Duration : 1 h 46 min

  453. Bit rate mode : Constant

  454. Bit rate : 640 kb/s

  455. Channel(s) : 6 channels

  456. Channel layout : L R C LFE Ls Rs

  457. Sampling rate : 48.0 kHz

  458. Frame rate : 31.250 FPS (1536 SPF)

  459. Compression mode : Lossy

  460. Stream size : 489 MiB (3%)

  461. Title : Brazilian Portuguese

  462. Language : Portuguese

  463. Service kind : Complete Main

  464. Default : No

  465. Forced : No


  466. Audio #22

  467. ID : 23

  468. Format : E-AC-3

  469. Format/Info : Enhanced AC-3

  470. Commercial name : Dolby Digital Plus

  471. Codec ID : A_EAC3

  472. Duration : 1 h 46 min

  473. Bit rate mode : Constant

  474. Bit rate : 640 kb/s

  475. Channel(s) : 6 channels

  476. Channel layout : L R C LFE Ls Rs

  477. Sampling rate : 48.0 kHz

  478. Frame rate : 31.250 FPS (1536 SPF)

  479. Compression mode : Lossy

  480. Stream size : 489 MiB (3%)

  481. Title : Romanian

  482. Language : Romanian

  483. Service kind : Complete Main

  484. Default : No

  485. Forced : No


  486. Audio #23

  487. ID : 24

  488. Format : E-AC-3

  489. Format/Info : Enhanced AC-3

  490. Commercial name : Dolby Digital Plus

  491. Codec ID : A_EAC3

  492. Duration : 1 h 46 min

  493. Bit rate mode : Constant

  494. Bit rate : 640 kb/s

  495. Channel(s) : 6 channels

  496. Channel layout : L R C LFE Ls Rs

  497. Sampling rate : 48.0 kHz

  498. Frame rate : 31.250 FPS (1536 SPF)

  499. Compression mode : Lossy

  500. Stream size : 489 MiB (3%)

  501. Title : Russian

  502. Language : Russian

  503. Service kind : Complete Main

  504. Default : No

  505. Forced : No


  506. Audio #24

  507. ID : 25

  508. Format : E-AC-3

  509. Format/Info : Enhanced AC-3

  510. Commercial name : Dolby Digital Plus

  511. Codec ID : A_EAC3

  512. Duration : 1 h 46 min

  513. Bit rate mode : Constant

  514. Bit rate : 640 kb/s

  515. Channel(s) : 6 channels

  516. Channel layout : L R C LFE Ls Rs

  517. Sampling rate : 48.0 kHz

  518. Frame rate : 31.250 FPS (1536 SPF)

  519. Compression mode : Lossy

  520. Stream size : 489 MiB (3%)

  521. Title : Spanish

  522. Language : Spanish

  523. Service kind : Complete Main

  524. Default : No

  525. Forced : No


  526. Audio #25

  527. ID : 26

  528. Format : E-AC-3

  529. Format/Info : Enhanced AC-3

  530. Commercial name : Dolby Digital Plus

  531. Codec ID : A_EAC3

  532. Duration : 1 h 46 min

  533. Bit rate mode : Constant

  534. Bit rate : 640 kb/s

  535. Channel(s) : 6 channels

  536. Channel layout : L R C LFE Ls Rs

  537. Sampling rate : 48.0 kHz

  538. Frame rate : 31.250 FPS (1536 SPF)

  539. Compression mode : Lossy

  540. Stream size : 489 MiB (3%)

  541. Title : European Spanish

  542. Language : Spanish

  543. Service kind : Complete Main

  544. Default : No

  545. Forced : No


  546. Audio #26

  547. ID : 27

  548. Format : E-AC-3

  549. Format/Info : Enhanced AC-3

  550. Commercial name : Dolby Digital Plus

  551. Codec ID : A_EAC3

  552. Duration : 1 h 46 min

  553. Bit rate mode : Constant

  554. Bit rate : 640 kb/s

  555. Channel(s) : 6 channels

  556. Channel layout : L R C LFE Ls Rs

  557. Sampling rate : 48.0 kHz

  558. Frame rate : 31.250 FPS (1536 SPF)

  559. Compression mode : Lossy

  560. Stream size : 489 MiB (3%)

  561. Title : Swedish

  562. Language : Swedish

  563. Service kind : Complete Main

  564. Default : No

  565. Forced : No


  566. Audio #27

  567. ID : 28

  568. Format : E-AC-3

  569. Format/Info : Enhanced AC-3

  570. Commercial name : Dolby Digital Plus

  571. Codec ID : A_EAC3

  572. Duration : 1 h 46 min

  573. Bit rate mode : Constant

  574. Bit rate : 640 kb/s

  575. Channel(s) : 6 channels

  576. Channel layout : L R C LFE Ls Rs

  577. Sampling rate : 48.0 kHz

  578. Frame rate : 31.250 FPS (1536 SPF)

  579. Compression mode : Lossy

  580. Stream size : 489 MiB (3%)

  581. Title : Thai

  582. Language : Thai

  583. Service kind : Complete Main

  584. Default : No

  585. Forced : No


  586. Audio #28

  587. ID : 29

  588. Format : E-AC-3

  589. Format/Info : Enhanced AC-3

  590. Commercial name : Dolby Digital Plus

  591. Codec ID : A_EAC3

  592. Duration : 1 h 46 min

  593. Bit rate mode : Constant

  594. Bit rate : 640 kb/s

  595. Channel(s) : 6 channels

  596. Channel layout : L R C LFE Ls Rs

  597. Sampling rate : 48.0 kHz

  598. Frame rate : 31.250 FPS (1536 SPF)

  599. Compression mode : Lossy

  600. Stream size : 489 MiB (3%)

  601. Title : Turkish

  602. Language : Turkish

  603. Service kind : Complete Main

  604. Default : No

  605. Forced : No


  606. Text #1

  607. ID : 30

  608. Format : UTF-8

  609. Codec ID : S_TEXT/UTF8

  610. Codec ID/Info : UTF-8 Plain Text

  611. Duration : 1 h 41 min

  612. Bit rate : 88 b/s

  613. Count of elements : 1638

  614. Stream size : 66.3 KiB (0%)

  615. Title : English

  616. Language : English

  617. Default : Yes

  618. Forced : No


  619. Text #2

  620. ID : 31

  621. Format : UTF-8

  622. Codec ID : S_TEXT/UTF8

  623. Codec ID/Info : UTF-8 Plain Text

  624. Duration : 1 h 42 min

  625. Bit rate : 88 b/s

  626. Count of elements : 1239

  627. Stream size : 66.6 KiB (0%)

  628. Title : Arabic

  629. Language : Arabic

  630. Default : No

  631. Forced : No


  632. Text #3

  633. ID : 32

  634. Format : UTF-8

  635. Codec ID : S_TEXT/UTF8

  636. Codec ID/Info : UTF-8 Plain Text

  637. Duration : 1 h 42 min

  638. Bit rate : 53 b/s

  639. Count of elements : 1224

  640. Stream size : 40.1 KiB (0%)

  641. Title : Chinese Simplified

  642. Language : Chinese

  643. Default : No

  644. Forced : No


  645. Text #4

  646. ID : 33

  647. Format : UTF-8

  648. Codec ID : S_TEXT/UTF8

  649. Codec ID/Info : UTF-8 Plain Text

  650. Duration : 1 h 42 min

  651. Bit rate : 55 b/s

  652. Count of elements : 1251

  653. Stream size : 41.6 KiB (0%)

  654. Title : Chinese Traditional

  655. Language : Chinese

  656. Default : No

  657. Forced : No


  658. Text #5

  659. ID : 34

  660. Format : UTF-8

  661. Codec ID : S_TEXT/UTF8

  662. Codec ID/Info : UTF-8 Plain Text

  663. Duration : 1 h 42 min

  664. Bit rate : 44 b/s

  665. Count of elements : 1225

  666. Stream size : 33.4 KiB (0%)

  667. Title : Croatian

  668. Language : Croatian

  669. Default : No

  670. Forced : No


  671. Text #6

  672. ID : 35

  673. Format : UTF-8

  674. Codec ID : S_TEXT/UTF8

  675. Codec ID/Info : UTF-8 Plain Text

  676. Duration : 1 h 42 min

  677. Bit rate : 48 b/s

  678. Count of elements : 1183

  679. Stream size : 36.7 KiB (0%)

  680. Title : Czech

  681. Language : Czech

  682. Default : No

  683. Forced : No


  684. Text #7

  685. ID : 36

  686. Format : UTF-8

  687. Codec ID : S_TEXT/UTF8

  688. Codec ID/Info : UTF-8 Plain Text

  689. Duration : 1 h 42 min

  690. Bit rate : 47 b/s

  691. Count of elements : 1188

  692. Stream size : 35.8 KiB (0%)

  693. Title : Danish

  694. Language : Danish

  695. Default : No

  696. Forced : No


  697. Text #8

  698. ID : 37

  699. Format : UTF-8

  700. Codec ID : S_TEXT/UTF8

  701. Codec ID/Info : UTF-8 Plain Text

  702. Duration : 1 h 42 min

  703. Bit rate : 48 b/s

  704. Count of elements : 1090

  705. Stream size : 36.7 KiB (0%)

  706. Title : Dutch

  707. Language : Dutch

  708. Default : No

  709. Forced : No


  710. Text #9

  711. ID : 38

  712. Format : UTF-8

  713. Codec ID : S_TEXT/UTF8

  714. Codec ID/Info : UTF-8 Plain Text

  715. Duration : 1 h 42 min

  716. Bit rate : 44 b/s

  717. Count of elements : 1046

  718. Stream size : 33.7 KiB (0%)

  719. Title : Finnish

  720. Language : Finnish

  721. Default : No

  722. Forced : No


  723. Text #10

  724. ID : 39

  725. Format : UTF-8

  726. Codec ID : S_TEXT/UTF8

  727. Codec ID/Info : UTF-8 Plain Text

  728. Duration : 1 h 42 min

  729. Bit rate : 84 b/s

  730. Count of elements : 1343

  731. Stream size : 63.3 KiB (0%)

  732. Title : Greek

  733. Language : Greek

  734. Default : No

  735. Forced : No


  736. Text #11

  737. ID : 40

  738. Format : UTF-8

  739. Codec ID : S_TEXT/UTF8

  740. Codec ID/Info : UTF-8 Plain Text

  741. Duration : 1 h 42 min

  742. Bit rate : 79 b/s

  743. Count of elements : 1204

  744. Stream size : 59.4 KiB (0%)

  745. Title : Hebrew

  746. Language : Hebrew

  747. Default : No

  748. Forced : No


  749. Text #12

  750. ID : 41

  751. Format : UTF-8

  752. Codec ID : S_TEXT/UTF8

  753. Codec ID/Info : UTF-8 Plain Text

  754. Duration : 1 h 42 min

  755. Bit rate : 50 b/s

  756. Count of elements : 1210

  757. Stream size : 37.9 KiB (0%)

  758. Title : Hungarian

  759. Language : Hungarian

  760. Default : No

  761. Forced : No


  762. Text #13

  763. ID : 42

  764. Format : UTF-8

  765. Codec ID : S_TEXT/UTF8

  766. Codec ID/Info : UTF-8 Plain Text

  767. Duration : 1 h 42 min

  768. Bit rate : 48 b/s

  769. Count of elements : 1202

  770. Stream size : 36.7 KiB (0%)

  771. Title : Indonesian

  772. Language : Indonesian

  773. Default : No

  774. Forced : No


  775. Text #14

  776. ID : 43

  777. Format : UTF-8

  778. Codec ID : S_TEXT/UTF8

  779. Codec ID/Info : UTF-8 Plain Text

  780. Duration : 1 h 42 min

  781. Bit rate : 50 b/s

  782. Count of elements : 1200

  783. Stream size : 37.8 KiB (0%)

  784. Title : Italian

  785. Language : Italian

  786. Default : No

  787. Forced : No


  788. Text #15

  789. ID : 44

  790. Format : UTF-8

  791. Codec ID : S_TEXT/UTF8

  792. Codec ID/Info : UTF-8 Plain Text

  793. Duration : 1 h 42 min

  794. Bit rate : 50 b/s

  795. Count of elements : 1403

  796. Stream size : 37.8 KiB (0%)

  797. Title : Japanese

  798. Language : Japanese

  799. Default : No

  800. Forced : No


  801. Text #16

  802. ID : 45

  803. Format : UTF-8

  804. Codec ID : S_TEXT/UTF8

  805. Codec ID/Info : UTF-8 Plain Text

  806. Duration : 1 h 42 min

  807. Bit rate : 61 b/s

  808. Count of elements : 1241

  809. Stream size : 46.3 KiB (0%)

  810. Title : Korean

  811. Language : Korean

  812. Default : No

  813. Forced : No


  814. Text #17

  815. ID : 46

  816. Format : UTF-8

  817. Codec ID : S_TEXT/UTF8

  818. Codec ID/Info : UTF-8 Plain Text

  819. Duration : 1 h 42 min

  820. Bit rate : 49 b/s

  821. Count of elements : 1196

  822. Stream size : 36.9 KiB (0%)

  823. Title : Malay

  824. Language : Malay

  825. Default : No

  826. Forced : No


  827. Text #18

  828. ID : 47

  829. Format : UTF-8

  830. Codec ID : S_TEXT/UTF8

  831. Codec ID/Info : UTF-8 Plain Text

  832. Duration : 1 h 42 min

  833. Bit rate : 46 b/s

  834. Count of elements : 1110

  835. Stream size : 35.3 KiB (0%)

  836. Title : Norwegian Bokmal

  837. Language : Norwegian Bokmal

  838. Default : No

  839. Forced : No


  840. Text #19

  841. ID : 48

  842. Format : UTF-8

  843. Codec ID : S_TEXT/UTF8

  844. Codec ID/Info : UTF-8 Plain Text

  845. Duration : 1 h 42 min

  846. Bit rate : 48 b/s

  847. Count of elements : 1162

  848. Stream size : 36.7 KiB (0%)

  849. Title : Polish

  850. Language : Polish

  851. Default : No

  852. Forced : No


  853. Text #20

  854. ID : 49

  855. Format : UTF-8

  856. Codec ID : S_TEXT/UTF8

  857. Codec ID/Info : UTF-8 Plain Text

  858. Duration : 1 h 42 min

  859. Bit rate : 50 b/s

  860. Count of elements : 1212

  861. Stream size : 37.9 KiB (0%)

  862. Title : Portuguese

  863. Language : Portuguese

  864. Default : No

  865. Forced : No


  866. Text #21

  867. ID : 50

  868. Format : UTF-8

  869. Codec ID : S_TEXT/UTF8

  870. Codec ID/Info : UTF-8 Plain Text

  871. Duration : 1 h 42 min

  872. Bit rate : 48 b/s

  873. Count of elements : 1280

  874. Stream size : 36.7 KiB (0%)

  875. Title : Brazilian Portuguese

  876. Language : Portuguese

  877. Default : No

  878. Forced : No


  879. Text #22

  880. ID : 51

  881. Format : UTF-8

  882. Codec ID : S_TEXT/UTF8

  883. Codec ID/Info : UTF-8 Plain Text

  884. Duration : 1 h 42 min

  885. Bit rate : 56 b/s

  886. Count of elements : 1162

  887. Stream size : 42.8 KiB (0%)

  888. Title : Romanian

  889. Language : Romanian

  890. Default : No

  891. Forced : No


  892. Text #23

  893. ID : 52

  894. Format : UTF-8

  895. Codec ID : S_TEXT/UTF8

  896. Codec ID/Info : UTF-8 Plain Text

  897. Duration : 1 h 42 min

  898. Bit rate : 78 b/s

  899. Count of elements : 1212

  900. Stream size : 59.1 KiB (0%)

  901. Title : Russian

  902. Language : Russian

  903. Default : No

  904. Forced : No


  905. Text #24

  906. ID : 53

  907. Format : UTF-8

  908. Codec ID : S_TEXT/UTF8

  909. Codec ID/Info : UTF-8 Plain Text

  910. Duration : 1 h 42 min

  911. Bit rate : 49 b/s

  912. Count of elements : 1222

  913. Stream size : 37.3 KiB (0%)

  914. Title : Spanish

  915. Language : Spanish

  916. Default : No

  917. Forced : No


  918. Text #25

  919. ID : 54

  920. Format : UTF-8

  921. Codec ID : S_TEXT/UTF8

  922. Codec ID/Info : UTF-8 Plain Text

  923. Duration : 1 h 42 min

  924. Bit rate : 46 b/s

  925. Count of elements : 1381

  926. Stream size : 34.8 KiB (0%)

  927. Title : European Spanish

  928. Language : Spanish

  929. Default : No

  930. Forced : No


  931. Text #26

  932. ID : 55

  933. Format : UTF-8

  934. Codec ID : S_TEXT/UTF8

  935. Codec ID/Info : UTF-8 Plain Text

  936. Duration : 1 h 42 min

  937. Bit rate : 47 b/s

  938. Count of elements : 1119

  939. Stream size : 35.9 KiB (0%)

  940. Title : Swedish

  941. Language : Swedish

  942. Default : No

  943. Forced : No


  944. Text #27

  945. ID : 56

  946. Format : UTF-8

  947. Codec ID : S_TEXT/UTF8

  948. Codec ID/Info : UTF-8 Plain Text

  949. Duration : 1 h 42 min

  950. Bit rate : 137 b/s

  951. Count of elements : 1210

  952. Stream size : 103 KiB (0%)

  953. Title : Thai

  954. Language : Thai

  955. Default : No

  956. Forced : No


  957. Text #28

  958. ID : 57

  959. Format : UTF-8

  960. Codec ID : S_TEXT/UTF8

  961. Codec ID/Info : UTF-8 Plain Text

  962. Duration : 1 h 42 min

  963. Bit rate : 49 b/s

  964. Count of elements : 1313

  965. Stream size : 37.5 KiB (0%)

  966. Title : Turkish

  967. Language : Turkish

  968. Default : No

  969. Forced : No


  970. Text #29

  971. ID : 58

  972. Format : UTF-8

  973. Codec ID : S_TEXT/UTF8

  974. Codec ID/Info : UTF-8 Plain Text

  975. Duration : 1 h 42 min

  976. Bit rate : 78 b/s

  977. Count of elements : 1178

  978. Stream size : 59.3 KiB (0%)

  979. Title : Ukrainian

  980. Language : Ukrainian

  981. Default : No

  982. Forced : No




复制代码



文件下载


除非特别注明,本文『圣诞男孩[国语配音/中文字幕].A.Boy.Called.Christmas.2021.1080p.HDR.NF.WEB-DL.DDP5.1.Atmos.HEVC 16.93GB』来源于互联网机器人自动抓取,非本站原创。 浮游电影网不对本文拥有版权,如有侵犯,请联系邮箱:fuyouu#yandex.com[#换成@]投诉。我们会在15个工作日内删除。 但烦请转载时请标明出处:“本文转载于『浮游电影网』,原文地址:https://www.fuyouu.com/19032.html

评论吧骚年!

发表你的见解   

昵称*

E-mail*(建议输入,以便收到博主回复的提示邮件)

验证码*

您可以使用eMule或eMule Mod(Windows)、aMule(Win、Linux、Mac)等软件下载eD2k链接。。
eMule收藏集(.emulecollection)文件是您选中的所有链接的列表文件。eMule可以直接下载它们。
按住SHIFT键选择可以选中多个选择框。
可用文件名和大小选择器来选择文件。
文件名选择器帮您根据文件名称或后缀来选择文件。不分大小写。
符号使用:
和:空格( )、+
不包含:-
或:|
转义:一对英文引号("");
匹配开头:^
匹配结尾:$
例如:
选中所有名称中包含有“eMule”或“0.49c”字眼,但不包含有“exe”字眼的:emule|0.49c -exe
选中所有名称的开头是“eMule”,结尾是“0.49c”的:^emule 0.49c$
选中所有名称中带有“eMule 0.49c”的(必须是“eMule 0.49c”,中间没有别的字符,不能是“eMule fake 0.49c”),需要转义:"emule 0.49c"
大小选择器帮您根据文件大小选择文件。