当前位置: 首页 >> 欧美电影 >> 圣诞城堡[中文字幕].A.Castle.for.Christmas.2021.1080p.NF.WEB-DL.DDP5.1.Atmos.x264-btbt9527.COM 11.06GB >> 正文

圣诞城堡[中文字幕].A.Castle.for.Christmas.2021.1080p.NF.WEB-DL.DDP5.1.Atmos.x264-btbt9527.COM 11.06GB

2021年11月27日 22:24:31     电影发布:来源于网络     电影分类:欧美电影     评论(0)    

圣诞城堡[中文字幕].A.Castle.for.Christmas.2021.1080p.NF.WEB DL.DDP5.1.Atmos.x264 btbt9527.COM 11.06GB 爱情片 欧美电影  第1张

◎译 名 圣诞城堡

◎片 名 A Castle for Christmas

◎年 代 2021

◎产 地 美国

◎类 别 爱情

◎语 言 英语

◎上映日期 2021-11-26(美国)

◎IMDb链接 https://www.imdb.com/title/tt13070602/

◎豆瓣链接 https://movie.douban.com/subject/35278795/

◎片 长 98分钟

◎导 演 玛丽·兰伯特 Mary Lambert (id:1276529)

◎编 剧 Neal H. Dobrofsky Neal H. Dobrofsky (id:1322821)

Tippi Dobrofsky Tippi Dobrofsky (id:1322822)

◎演 员 波姬·小丝 Brooke Shields (id:1019021)

加利·艾尔维斯 Cary Elwes (id:1040521)

◎标 签 WK / Brooke_Shields

◎简 介

A famed American author, Sophie, who travels to Scotland and finds herself wanting to buy a castle, but the prickly owner, a Scottish Duke named Myles, is reluctant to sell to a foreigner.

  1. ##### MediaInfo ######

  2. General

  3. Unique ID : 275987103360150668986261770292861180505 (0xCFA12EC2F9E9315E9E851ED5BD659A59)

  4. Complete name : A.Ca[email protected]BBQDDQ.COM.mkv

  5. Format : Matroska

  6. Format version : Version 4

  7. File size : 11.1 GiB

  8. Duration : 1 h 39 min

  9. Overall bit rate mode : Variable

  10. Overall bit rate : 15.9 Mb/s

  11. Encoded date : UTC 2021-11-26 08:57:44

  12. Writing application : mkvmerge v44.0.0 ('Domino') 64-bit

  13. Writing library : libebml v1.3.10 + libmatroska v1.5.2


  14. Video

  15. ID : 1

  16. Format : AVC

  17. Format/Info : Advanced Video Codec

  18. Format profile : [email protected]

  19. Format settings : CABAC / 3 Ref Frames

  20. Format settings, CABAC : Yes

  21. Format settings, Reference frames : 3 frames

  22. Codec ID : V_MPEG4/ISO/AVC

  23. Duration : 1 h 39 min

  24. Bit rate mode : Variable

  25. Bit rate : 4 276 kb/s

  26. Nominal bit rate : 4 870 kb/s

  27. Maximum bit rate : 7 305 kb/s

  28. Width : 1 920 pixels

  29. Height : 1 080 pixels

  30. Display aspect ratio : 16:9

  31. Frame rate mode : Constant

  32. Frame rate : 24.000 FPS

  33. Color space : YUV

  34. Chroma subsampling : 4:2:0

  35. Bit depth : 8 bits

  36. Scan type : Progressive

  37. Bits/(Pixel*Frame) : 0.086

  38. Stream size : 2.97 GiB (27%)

  39. Writing library : x264 core 148 r2727 7d026e8

  40. Encoding settings : cabac=1 / ref=3 / deblock=1:0:0 / analyse=0x1:0x111 / me=umh / subme=10 / psy=1 / psy_rd=1.00:0.00 / mixed_ref=1 / me_range=24 / chroma_me=1 / trellis=2 / 8x8dct=0 / cqm=0 / deadzone=21,11 / fast_pskip=1 / chroma_qp_offset=-2 / threads=8 / lookahead_threads=1 / sliced_threads=0 / nr=0 / decimate=1 / interlaced=0 / NTMzNTQ= / bluray_compat=0 / stitchable=1 / constrained_intra=0 / bframes=2 / b_pyramid=0 / b_adapt=2 / b_bias=0 / direct=3 / weightb=1 / open_gop=0 / weightp=2 / keyint=250 / keyint_min=24 / scenecut=0 / intra_refresh=0 / rc_lookahead=48 / rc=2pass / mbtree=1 / bitrate=4870 / ratetol=1.0 / qcomp=0.50 / qpmin=6 / qpmax=51 / qpstep=4 / cplxblur=20.0 / qblur=0.5 / vbv_maxrate=7305 / vbv_bufsize=9740 / nal_hrd=vbr / filler=0 / NTMzNTQ=LmsMAP37EqsCpk / ip_ratio=1.40 / aq=1:1.00

  41. Default : Yes

  42. Forced : No


  43. Audio #1

  44. ID : 2

  45. Format : E-AC-3 JOC

  46. Format/Info : Enhanced AC-3 with Joint Object Coding

  47. Commercial name : Dolby Digital Plus with Dolby Atmos

  48. Codec ID : A_EAC3

  49. Duration : 1 h 39 min

  50. Bit rate mode : Constant

  51. Bit rate : 768 kb/s

  52. Channel(s) : 6 channels

  53. Channel layout : L R C LFE Ls Rs

  54. Sampling rate : 48.0 kHz

  55. Frame rate : 31.250 FPS (1536 SPF)

  56. Compression mode : Lossy

  57. Stream size : 546 MiB (5%)

  58. Title : English

  59. Language : English

  60. Service kind : Complete Main

  61. Default : Yes

  62. Forced : No

  63. Complexity index : 16

  64. Number of dynamic objects : 15

  65. Bed channel count : 1 channel

  66. Bed channel configuration : LFE


  67. Audio #2

  68. ID : 3

  69. Format : E-AC-3

  70. Format/Info : Enhanced AC-3

  71. Commercial name : Dolby Digital Plus

  72. Codec ID : A_EAC3

  73. Duration : 1 h 39 min

  74. Bit rate mode : Constant

  75. Bit rate : 640 kb/s

  76. Channel(s) : 6 channels

  77. Channel layout : L R C LFE Ls Rs

  78. Sampling rate : 48.0 kHz

  79. Frame rate : 31.250 FPS (1536 SPF)

  80. Compression mode : Lossy

  81. Stream size : 455 MiB (4%)

  82. Title : Arabic Syria

  83. Language : Arabic

  84. Service kind : Complete Main

  85. Default : No

  86. Forced : No


  87. Audio #3

  88. ID : 4

  89. Format : E-AC-3

  90. Format/Info : Enhanced AC-3

  91. Commercial name : Dolby Digital Plus

  92. Codec ID : A_EAC3

  93. Duration : 1 h 39 min

  94. Bit rate mode : Constant

  95. Bit rate : 640 kb/s

  96. Channel(s) : 6 channels

  97. Channel layout : L R C LFE Ls Rs

  98. Sampling rate : 48.0 kHz

  99. Frame rate : 31.250 FPS (1536 SPF)

  100. Compression mode : Lossy

  101. Stream size : 455 MiB (4%)

  102. Title : Czech

  103. Language : Czech

  104. Service kind : Complete Main

  105. Default : No

  106. Forced : No


  107. Audio #4

  108. ID : 5

  109. Format : E-AC-3

  110. Format/Info : Enhanced AC-3

  111. Commercial name : Dolby Digital Plus

  112. Codec ID : A_EAC3

  113. Duration : 1 h 39 min

  114. Bit rate mode : Constant

  115. Bit rate : 640 kb/s

  116. Channel(s) : 6 channels

  117. Channel layout : L R C LFE Ls Rs

  118. Sampling rate : 48.0 kHz

  119. Frame rate : 31.250 FPS (1536 SPF)

  120. Compression mode : Lossy

  121. Stream size : 455 MiB (4%)

  122. Title : French

  123. Language : French

  124. Service kind : Complete Main

  125. Default : No

  126. Forced : No


  127. Audio #5

  128. ID : 6

  129. Format : E-AC-3

  130. Format/Info : Enhanced AC-3

  131. Commercial name : Dolby Digital Plus

  132. Codec ID : A_EAC3

  133. Duration : 1 h 39 min

  134. Bit rate mode : Constant

  135. Bit rate : 640 kb/s

  136. Channel(s) : 6 channels

  137. Channel layout : L R C LFE Ls Rs

  138. Sampling rate : 48.0 kHz

  139. Frame rate : 31.250 FPS (1536 SPF)

  140. Compression mode : Lossy

  141. Stream size : 455 MiB (4%)

  142. Title : German

  143. Language : German

  144. Service kind : Complete Main

  145. Default : No

  146. Forced : No


  147. Audio #6

  148. ID : 7

  149. Format : E-AC-3

  150. Format/Info : Enhanced AC-3

  151. Commercial name : Dolby Digital Plus

  152. Codec ID : A_EAC3

  153. Duration : 1 h 39 min

  154. Bit rate mode : Constant

  155. Bit rate : 640 kb/s

  156. Channel(s) : 6 channels

  157. Channel layout : L R C LFE Ls Rs

  158. Sampling rate : 48.0 kHz

  159. Frame rate : 31.250 FPS (1536 SPF)

  160. Compression mode : Lossy

  161. Stream size : 455 MiB (4%)

  162. Title : Hindi

  163. Language : Hindi

  164. Service kind : Complete Main

  165. Default : No

  166. Forced : No


  167. Audio #7

  168. ID : 8

  169. Format : E-AC-3

  170. Format/Info : Enhanced AC-3

  171. Commercial name : Dolby Digital Plus

  172. Codec ID : A_EAC3

  173. Duration : 1 h 39 min

  174. Bit rate mode : Constant

  175. Bit rate : 640 kb/s

  176. Channel(s) : 6 channels

  177. Channel layout : L R C LFE Ls Rs

  178. Sampling rate : 48.0 kHz

  179. Frame rate : 31.250 FPS (1536 SPF)

  180. Compression mode : Lossy

  181. Stream size : 455 MiB (4%)

  182. Title : Hungarian

  183. Language : Hungarian

  184. Service kind : Complete Main

  185. Default : No

  186. Forced : No


  187. Audio #8

  188. ID : 9

  189. Format : E-AC-3

  190. Format/Info : Enhanced AC-3

  191. Commercial name : Dolby Digital Plus

  192. Codec ID : A_EAC3

  193. Duration : 1 h 39 min

  194. Bit rate mode : Constant

  195. Bit rate : 640 kb/s

  196. Channel(s) : 6 channels

  197. Channel layout : L R C LFE Ls Rs

  198. Sampling rate : 48.0 kHz

  199. Frame rate : 31.250 FPS (1536 SPF)

  200. Compression mode : Lossy

  201. Stream size : 455 MiB (4%)

  202. Title : Italian

  203. Language : Italian

  204. Service kind : Complete Main

  205. Default : No

  206. Forced : No


  207. Audio #9

  208. ID : 10

  209. Format : E-AC-3

  210. Format/Info : Enhanced AC-3

  211. Commercial name : Dolby Digital Plus

  212. Codec ID : A_EAC3

  213. Duration : 1 h 39 min

  214. Bit rate mode : Constant

  215. Bit rate : 640 kb/s

  216. Channel(s) : 6 channels

  217. Channel layout : L R C LFE Ls Rs

  218. Sampling rate : 48.0 kHz

  219. Frame rate : 31.250 FPS (1536 SPF)

  220. Compression mode : Lossy

  221. Stream size : 455 MiB (4%)

  222. Title : Japanese

  223. Language : Japanese

  224. Service kind : Complete Main

  225. Default : No

  226. Forced : No


  227. Audio #10

  228. ID : 11

  229. Format : E-AC-3

  230. Format/Info : Enhanced AC-3

  231. Commercial name : Dolby Digital Plus

  232. Codec ID : A_EAC3

  233. Duration : 1 h 39 min

  234. Bit rate mode : Constant

  235. Bit rate : 640 kb/s

  236. Channel(s) : 6 channels

  237. Channel layout : L R C LFE Ls Rs

  238. Sampling rate : 48.0 kHz

  239. Frame rate : 31.250 FPS (1536 SPF)

  240. Compression mode : Lossy

  241. Stream size : 455 MiB (4%)

  242. Title : Korean

  243. Language : Korean

  244. Service kind : Complete Main

  245. Default : No

  246. Forced : No


  247. Audio #11

  248. ID : 12

  249. Format : E-AC-3

  250. Format/Info : Enhanced AC-3

  251. Commercial name : Dolby Digital Plus

  252. Codec ID : A_EAC3

  253. Duration : 1 h 39 min

  254. Bit rate mode : Constant

  255. Bit rate : 640 kb/s

  256. Channel(s) : 6 channels

  257. Channel layout : L R C LFE Ls Rs

  258. Sampling rate : 48.0 kHz

  259. Frame rate : 31.250 FPS (1536 SPF)

  260. Compression mode : Lossy

  261. Stream size : 455 MiB (4%)

  262. Title : Polish

  263. Language : Polish

  264. Service kind : Complete Main

  265. Default : No

  266. Forced : No


  267. Audio #12

  268. ID : 13

  269. Format : E-AC-3

  270. Format/Info : Enhanced AC-3

  271. Commercial name : Dolby Digital Plus

  272. Codec ID : A_EAC3

  273. Duration : 1 h 39 min

  274. Bit rate mode : Constant

  275. Bit rate : 640 kb/s

  276. Channel(s) : 6 channels

  277. Channel layout : L R C LFE Ls Rs

  278. Sampling rate : 48.0 kHz

  279. Frame rate : 31.250 FPS (1536 SPF)

  280. Compression mode : Lossy

  281. Stream size : 455 MiB (4%)

  282. Title : Brazilian Portuguese

  283. Language : Portuguese

  284. Service kind : Complete Main

  285. Default : No

  286. Forced : No


  287. Audio #13

  288. ID : 14

  289. Format : E-AC-3

  290. Format/Info : Enhanced AC-3

  291. Commercial name : Dolby Digital Plus

  292. Codec ID : A_EAC3

  293. Duration : 1 h 39 min

  294. Bit rate mode : Constant

  295. Bit rate : 640 kb/s

  296. Channel(s) : 6 channels

  297. Channel layout : L R C LFE Ls Rs

  298. Sampling rate : 48.0 kHz

  299. Frame rate : 31.250 FPS (1536 SPF)

  300. Compression mode : Lossy

  301. Stream size : 455 MiB (4%)

  302. Title : Russian

  303. Language : Russian

  304. Service kind : Complete Main

  305. Default : No

  306. Forced : No


  307. Audio #14

  308. ID : 15

  309. Format : E-AC-3

  310. Format/Info : Enhanced AC-3

  311. Commercial name : Dolby Digital Plus

  312. Codec ID : A_EAC3

  313. Duration : 1 h 39 min

  314. Bit rate mode : Constant

  315. Bit rate : 640 kb/s

  316. Channel(s) : 6 channels

  317. Channel layout : L R C LFE Ls Rs

  318. Sampling rate : 48.0 kHz

  319. Frame rate : 31.250 FPS (1536 SPF)

  320. Compression mode : Lossy

  321. Stream size : 455 MiB (4%)

  322. Title : Spanish

  323. Language : Spanish

  324. Service kind : Complete Main

  325. Default : No

  326. Forced : No


  327. Audio #15

  328. ID : 16

  329. Format : E-AC-3

  330. Format/Info : Enhanced AC-3

  331. Commercial name : Dolby Digital Plus

  332. Codec ID : A_EAC3

  333. Duration : 1 h 39 min

  334. Bit rate mode : Constant

  335. Bit rate : 640 kb/s

  336. Channel(s) : 6 channels

  337. Channel layout : L R C LFE Ls Rs

  338. Sampling rate : 48.0 kHz

  339. Frame rate : 31.250 FPS (1536 SPF)

  340. Compression mode : Lossy

  341. Stream size : 455 MiB (4%)

  342. Title : European Spanish

  343. Language : Spanish

  344. Service kind : Complete Main

  345. Default : No

  346. Forced : No


  347. Audio #16

  348. ID : 17

  349. Format : E-AC-3

  350. Format/Info : Enhanced AC-3

  351. Commercial name : Dolby Digital Plus

  352. Codec ID : A_EAC3

  353. Duration : 1 h 39 min

  354. Bit rate mode : Constant

  355. Bit rate : 640 kb/s

  356. Channel(s) : 6 channels

  357. Channel layout : L R C LFE Ls Rs

  358. Sampling rate : 48.0 kHz

  359. Frame rate : 31.250 FPS (1536 SPF)

  360. Compression mode : Lossy

  361. Stream size : 455 MiB (4%)

  362. Title : Swedish

  363. Language : Swedish

  364. Service kind : Complete Main

  365. Default : No

  366. Forced : No


  367. Audio #17

  368. ID : 18

  369. Format : E-AC-3

  370. Format/Info : Enhanced AC-3

  371. Commercial name : Dolby Digital Plus

  372. Codec ID : A_EAC3

  373. Duration : 1 h 39 min

  374. Bit rate mode : Constant

  375. Bit rate : 640 kb/s

  376. Channel(s) : 6 channels

  377. Channel layout : L R C LFE Ls Rs

  378. Sampling rate : 48.0 kHz

  379. Frame rate : 31.250 FPS (1536 SPF)

  380. Compression mode : Lossy

  381. Stream size : 455 MiB (4%)

  382. Title : Thai

  383. Language : Thai

  384. Service kind : Complete Main

  385. Default : No

  386. Forced : No


  387. Audio #18

  388. ID : 19

  389. Format : E-AC-3

  390. Format/Info : Enhanced AC-3

  391. Commercial name : Dolby Digital Plus

  392. Codec ID : A_EAC3

  393. Duration : 1 h 39 min

  394. Bit rate mode : Constant

  395. Bit rate : 640 kb/s

  396. Channel(s) : 6 channels

  397. Channel layout : L R C LFE Ls Rs

  398. Sampling rate : 48.0 kHz

  399. Frame rate : 31.250 FPS (1536 SPF)

  400. Compression mode : Lossy

  401. Stream size : 455 MiB (4%)

  402. Title : Turkish

  403. Language : Turkish

  404. Service kind : Complete Main

  405. Default : No

  406. Forced : No


  407. Text #1

  408. ID : 20

  409. Format : UTF-8

  410. Codec ID : S_TEXT/UTF8

  411. Codec ID/Info : UTF-8 Plain Text

  412. Duration : 1 h 37 min

  413. Bit rate : 98 b/s

  414. Count of elements : 1784

  415. Stream size : 69.9 KiB (0%)

  416. Title : English

  417. Language : English

  418. Default : Yes

  419. Forced : No


  420. Text #2

  421. ID : 21

  422. Format : UTF-8

  423. Codec ID : S_TEXT/UTF8

  424. Codec ID/Info : UTF-8 Plain Text

  425. Duration : 15 s 958 ms

  426. Bit rate : 36 b/s

  427. Count of elements : 4

  428. Stream size : 72.0 Bytes (0%)

  429. Title : English (Forced)

  430. Language : English

  431. Default : No

  432. Forced : Yes


  433. Text #3

  434. ID : 22

  435. Format : UTF-8

  436. Codec ID : S_TEXT/UTF8

  437. Codec ID/Info : UTF-8 Plain Text

  438. Duration : 1 h 37 min

  439. Bit rate : 97 b/s

  440. Count of elements : 1306

  441. Stream size : 69.6 KiB (0%)

  442. Title : Arabic

  443. Language : Arabic

  444. Default : No

  445. Forced : No


  446. Text #4

  447. ID : 23

  448. Format : UTF-8

  449. Codec ID : S_TEXT/UTF8

  450. Codec ID/Info : UTF-8 Plain Text

  451. Duration : 1 h 37 min

  452. Bit rate : 58 b/s

  453. Count of elements : 1315

  454. Stream size : 41.7 KiB (0%)

  455. Title : Chinese Simplified

  456. Language : Chinese

  457. Default : No

  458. Forced : No


  459. Text #5

  460. ID : 24

  461. Format : UTF-8

  462. Codec ID : S_TEXT/UTF8

  463. Codec ID/Info : UTF-8 Plain Text

  464. Duration : 1 h 37 min

  465. Bit rate : 56 b/s

  466. Count of elements : 1300

  467. Stream size : 40.1 KiB (0%)

  468. Title : Chinese Traditional

  469. Language : Chinese

  470. Default : No

  471. Forced : No


  472. Text #6

  473. ID : 25

  474. Format : UTF-8

  475. Codec ID : S_TEXT/UTF8

  476. Codec ID/Info : UTF-8 Plain Text

  477. Duration : 1 h 37 min

  478. Bit rate : 48 b/s

  479. Count of elements : 1318

  480. Stream size : 34.5 KiB (0%)

  481. Title : Croatian

  482. Language : Croatian

  483. Default : No

  484. Forced : No


  485. Text #7

  486. ID : 26

  487. Format : UTF-8

  488. Codec ID : S_TEXT/UTF8

  489. Codec ID/Info : UTF-8 Plain Text

  490. Duration : 1 h 37 min

  491. Bit rate : 52 b/s

  492. Count of elements : 1253

  493. Stream size : 37.3 KiB (0%)

  494. Title : Czech

  495. Language : Czech

  496. Default : No

  497. Forced : No


  498. Text #8

  499. ID : 27

  500. Format : UTF-8

  501. Codec ID : S_TEXT/UTF8

  502. Codec ID/Info : UTF-8 Plain Text

  503. Duration : 1 h 37 min

  504. Bit rate : 52 b/s

  505. Count of elements : 1232

  506. Stream size : 37.4 KiB (0%)

  507. Title : Danish

  508. Language : Danish

  509. Default : No

  510. Forced : No


  511. Text #9

  512. ID : 28

  513. Format : UTF-8

  514. Codec ID : S_TEXT/UTF8

  515. Codec ID/Info : UTF-8 Plain Text

  516. Duration : 1 h 37 min

  517. Bit rate : 53 b/s

  518. Count of elements : 1244

  519. Stream size : 38.1 KiB (0%)

  520. Title : Dutch

  521. Language : Dutch

  522. Default : No

  523. Forced : No


  524. Text #10

  525. ID : 29

  526. Format : UTF-8

  527. Codec ID : S_TEXT/UTF8

  528. Codec ID/Info : UTF-8 Plain Text

  529. Duration : 1 h 37 min

  530. Bit rate : 53 b/s

  531. Count of elements : 1146

  532. Stream size : 38.0 KiB (0%)

  533. Title : Finnish

  534. Language : Finnish

  535. Default : No

  536. Forced : No


  537. Text #11

  538. ID : 30

  539. Format : UTF-8

  540. Codec ID : S_TEXT/UTF8

  541. Codec ID/Info : UTF-8 Plain Text

  542. Duration : 1 h 37 min

  543. Bit rate : 55 b/s

  544. Count of elements : 1226

  545. Stream size : 39.8 KiB (0%)

  546. Title : French

  547. Language : French

  548. Default : No

  549. Forced : No


  550. Text #12

  551. ID : 31

  552. Format : UTF-8

  553. Codec ID : S_TEXT/UTF8

  554. Codec ID/Info : UTF-8 Plain Text

  555. Duration : 1 h 18 min

  556. Bit rate : 59 b/s

  557. Count of elements : 1099

  558. Stream size : 34.1 KiB (0%)

  559. Title : German

  560. Language : German

  561. Default : No

  562. Forced : No


  563. Text #13

  564. ID : 32

  565. Format : UTF-8

  566. Codec ID : S_TEXT/UTF8

  567. Codec ID/Info : UTF-8 Plain Text

  568. Duration : 1 h 36 min

  569. Bit rate : 93 b/s

  570. Count of elements : 1336

  571. Stream size : 66.6 KiB (0%)

  572. Title : Greek

  573. Language : Greek

  574. Default : No

  575. Forced : No


  576. Text #14

  577. ID : 33

  578. Format : UTF-8

  579. Codec ID : S_TEXT/UTF8

  580. Codec ID/Info : UTF-8 Plain Text

  581. Duration : 1 h 37 min

  582. Bit rate : 91 b/s

  583. Count of elements : 1306

  584. Stream size : 64.8 KiB (0%)

  585. Title : Hebrew

  586. Language : Hebrew

  587. Default : No

  588. Forced : No


  589. Text #15

  590. ID : 34

  591. Format : UTF-8

  592. Codec ID : S_TEXT/UTF8

  593. Codec ID/Info : UTF-8 Plain Text

  594. Duration : 1 h 37 min

  595. Bit rate : 56 b/s

  596. Count of elements : 1296

  597. Stream size : 39.9 KiB (0%)

  598. Title : Hungarian

  599. Language : Hungarian

  600. Default : No

  601. Forced : No


  602. Text #16

  603. ID : 35

  604. Format : UTF-8

  605. Codec ID : S_TEXT/UTF8

  606. Codec ID/Info : UTF-8 Plain Text

  607. Duration : 1 h 37 min

  608. Bit rate : 55 b/s

  609. Count of elements : 1302

  610. Stream size : 39.5 KiB (0%)

  611. Title : Indonesian

  612. Language : Indonesian

  613. Default : No

  614. Forced : No


  615. Text #17

  616. ID : 36

  617. Format : UTF-8

  618. Codec ID : S_TEXT/UTF8

  619. Codec ID/Info : UTF-8 Plain Text

  620. Duration : 1 h 37 min

  621. Bit rate : 52 b/s

  622. Count of elements : 1292

  623. Stream size : 37.5 KiB (0%)

  624. Title : Italian

  625. Language : Italian

  626. Default : No

  627. Forced : No


  628. Text #18

  629. ID : 37

  630. Format : UTF-8

  631. Codec ID : S_TEXT/UTF8

  632. Codec ID/Info : UTF-8 Plain Text

  633. Duration : 1 h 37 min

  634. Bit rate : 54 b/s

  635. Count of elements : 1385

  636. Stream size : 38.9 KiB (0%)

  637. Title : Japanese

  638. Language : Japanese

  639. Default : No

  640. Forced : No


  641. Text #19

  642. ID : 38

  643. Format : UTF-8

  644. Codec ID : S_TEXT/UTF8

  645. Codec ID/Info : UTF-8 Plain Text

  646. Duration : 1 h 37 min

  647. Bit rate : 74 b/s

  648. Count of elements : 1316

  649. Stream size : 52.9 KiB (0%)

  650. Title : Korean

  651. Language : Korean

  652. Default : No

  653. Forced : No


  654. Text #20

  655. ID : 39

  656. Format : UTF-8

  657. Codec ID : S_TEXT/UTF8

  658. Codec ID/Info : UTF-8 Plain Text

  659. Duration : 1 h 32 min

  660. Bit rate : 56 b/s

  661. Count of elements : 1286

  662. Stream size : 38.4 KiB (0%)

  663. Title : Malay

  664. Language : Malay

  665. Default : No

  666. Forced : No


  667. Text #21

  668. ID : 40

  669. Format : UTF-8

  670. Codec ID : S_TEXT/UTF8

  671. Codec ID/Info : UTF-8 Plain Text

  672. Duration : 1 h 37 min

  673. Bit rate : 53 b/s

  674. Count of elements : 1125

  675. Stream size : 37.7 KiB (0%)

  676. Title : Norwegian Bokmal

  677. Language : Norwegian Bokmal

  678. Default : No

  679. Forced : No


  680. Text #22

  681. ID : 41

  682. Format : UTF-8

  683. Codec ID : S_TEXT/UTF8

  684. Codec ID/Info : UTF-8 Plain Text

  685. Duration : 1 h 37 min

  686. Bit rate : 51 b/s

  687. Count of elements : 1298

  688. Stream size : 36.4 KiB (0%)

  689. Title : Polish

  690. Language : Polish

  691. Default : No

  692. Forced : No


  693. Text #23

  694. ID : 42

  695. Format : UTF-8

  696. Codec ID : S_TEXT/UTF8

  697. Codec ID/Info : UTF-8 Plain Text

  698. Duration : 1 h 36 min

  699. Bit rate : 57 b/s

  700. Count of elements : 1275

  701. Stream size : 40.9 KiB (0%)

  702. Title : Portuguese

  703. Language : Portuguese

  704. Default : No

  705. Forced : No


  706. Text #24

  707. ID : 43

  708. Format : UTF-8

  709. Codec ID : S_TEXT/UTF8

  710. Codec ID/Info : UTF-8 Plain Text

  711. Duration : 1 h 33 min

  712. Bit rate : 57 b/s

  713. Count of elements : 1305

  714. Stream size : 39.4 KiB (0%)

  715. Title : Brazilian Portuguese

  716. Language : Portuguese

  717. Default : No

  718. Forced : No


  719. Text #25

  720. ID : 44

  721. Format : UTF-8

  722. Codec ID : S_TEXT/UTF8

  723. Codec ID/Info : UTF-8 Plain Text

  724. Duration : 1 h 37 min

  725. Bit rate : 60 b/s

  726. Count of elements : 1228

  727. Stream size : 43.3 KiB (0%)

  728. Title : Romanian

  729. Language : Romanian

  730. Default : No

  731. Forced : No


  732. Text #26

  733. ID : 45

  734. Format : UTF-8

  735. Codec ID : S_TEXT/UTF8

  736. Codec ID/Info : UTF-8 Plain Text

  737. Duration : 1 h 37 min

  738. Bit rate : 93 b/s

  739. Count of elements : 1304

  740. Stream size : 66.3 KiB (0%)

  741. Title : Russian

  742. Language : Russian

  743. Default : No

  744. Forced : No


  745. Text #27

  746. ID : 46

  747. Format : UTF-8

  748. Codec ID : S_TEXT/UTF8

  749. Codec ID/Info : UTF-8 Plain Text

  750. Duration : 1 h 37 min

  751. Bit rate : 55 b/s

  752. Count of elements : 1305

  753. Stream size : 39.2 KiB (0%)

  754. Title : Spanish

  755. Language : Spanish

  756. Default : No

  757. Forced : No


  758. Text #28

  759. ID : 47

  760. Format : UTF-8

  761. Codec ID : S_TEXT/UTF8

  762. Codec ID/Info : UTF-8 Plain Text

  763. Duration : 1 h 37 min

  764. Bit rate : 54 b/s

  765. Count of elements : 1312

  766. Stream size : 38.9 KiB (0%)

  767. Title : European Spanish

  768. Language : Spanish

  769. Default : No

  770. Forced : No


  771. Text #29

  772. ID : 48

  773. Format : UTF-8

  774. Codec ID : S_TEXT/UTF8

  775. Codec ID/Info : UTF-8 Plain Text

  776. Duration : 1 h 37 min

  777. Bit rate : 54 b/s

  778. Count of elements : 1236

  779. Stream size : 39.1 KiB (0%)

  780. Title : Swedish

  781. Language : Swedish

  782. Default : No

  783. Forced : No


  784. Text #30

  785. ID : 49

  786. Format : UTF-8

  787. Codec ID : S_TEXT/UTF8

  788. Codec ID/Info : UTF-8 Plain Text

  789. Duration : 1 h 37 min

  790. Bit rate : 152 b/s

  791. Count of elements : 1305

  792. Stream size : 108 KiB (0%)

  793. Title : Thai

  794. Language : Thai

  795. Default : No

  796. Forced : No


  797. Text #31

  798. ID : 50

  799. Format : UTF-8

  800. Codec ID : S_TEXT/UTF8

  801. Codec ID/Info : UTF-8 Plain Text

  802. Duration : 1 h 37 min

  803. Bit rate : 55 b/s

  804. Count of elements : 1116

  805. Stream size : 39.8 KiB (0%)

  806. Title : Turkish

  807. Language : Turkish

  808. Default : No

  809. Forced : No


  810. Text #32

  811. ID : 51

  812. Format : UTF-8

  813. Codec ID : S_TEXT/UTF8

  814. Codec ID/Info : UTF-8 Plain Text

  815. Duration : 1 h 37 min

  816. Bit rate : 87 b/s

  817. Count of elements : 1302

  818. Stream size : 62.1 KiB (0%)

  819. Title : Ukrainian

  820. Language : Ukrainian

  821. Default : No

  822. Forced : No


  823. Text #33

  824. ID : 52

  825. Format : UTF-8

  826. Codec ID : S_TEXT/UTF8

  827. Codec ID/Info : UTF-8 Plain Text

  828. Duration : 1 h 37 min

  829. Bit rate : 78 b/s

  830. Count of elements : 1371

  831. Stream size : 55.8 KiB (0%)

  832. Title : Vietnamese

  833. Language : Vietnamese

  834. Default : No

  835. Forced : No




复制代码



文件下载


除非特别注明,本文『圣诞城堡[中文字幕].A.Castle.for.Christmas.2021.1080p.NF.WEB-DL.DDP5.1.Atmos.x264-btbt9527.COM 11.06GB』来源于互联网机器人自动抓取,非本站原创。 浮游电影网不对本文拥有版权,如有侵犯,请联系邮箱:fuyouu#yandex.com[#换成@]投诉。我们会在15个工作日内删除。 但烦请转载时请标明出处:“本文转载于『浮游电影网』,原文地址:https://www.fuyouu.com/19031.html

评论吧骚年!

发表你的见解   

昵称*

E-mail*(建议输入,以便收到博主回复的提示邮件)

验证码*

您可以使用eMule或eMule Mod(Windows)、aMule(Win、Linux、Mac)等软件下载eD2k链接。。
eMule收藏集(.emulecollection)文件是您选中的所有链接的列表文件。eMule可以直接下载它们。
按住SHIFT键选择可以选中多个选择框。
可用文件名和大小选择器来选择文件。
文件名选择器帮您根据文件名称或后缀来选择文件。不分大小写。
符号使用:
和:空格( )、+
不包含:-
或:|
转义:一对英文引号("");
匹配开头:^
匹配结尾:$
例如:
选中所有名称中包含有“eMule”或“0.49c”字眼,但不包含有“exe”字眼的:emule|0.49c -exe
选中所有名称的开头是“eMule”,结尾是“0.49c”的:^emule 0.49c$
选中所有名称中带有“eMule 0.49c”的(必须是“eMule 0.49c”,中间没有别的字符,不能是“eMule fake 0.49c”),需要转义:"emule 0.49c"
大小选择器帮您根据文件大小选择文件。