当前位置: 首页 >> 欧美电影 >> 速度与激情4[中文字幕].Fast.and.Furious.2009.2160p.WEB-DL.H265.DD5.1-btbt9527.COM 11.24GB >> 正文

速度与激情4[中文字幕].Fast.and.Furious.2009.2160p.WEB-DL.H265.DD5.1-btbt9527.COM 11.24GB

2021年11月27日 22:23:04     电影发布:来源于网络     电影分类:欧美电影     评论(0)    

速度与激情4[中文字幕].Fast.and.Furious.2009.2160p.WEB DL.H265.DD5.1 btbt9527.COM 11.24GB 犯罪片 动作片 欧美电影  第1张

◎译 名 速度与激情4 / 狂野时速4(港) / 玩命关头4(台) / 赛车风云 / Fast and Furious 4

◎片 名 Fast & Furious

◎年 代 2009

◎产 地 美国

◎类 别 动作 / 犯罪

◎语 言 英语

◎上映日期 2009-04-15(中国大陆) / 2009-04-03(美国)

◎IMDb链接 https://www.imdb.com/title/tt1013752/

◎豆瓣评分 7.8/10 (154187人评价)

◎豆瓣链接 https://movie.douban.com/subject/2132930/

◎片 长 107分钟

◎导 演 林诣彬 Justin Lin (id:1290066)

◎编 剧 克里斯·摩根 Chris Morgan (id:1347624)

盖瑞·斯科特·汤普森 Gary Scott Thompson (id:1028134)

◎演 员 范·迪塞尔 Vin Diesel (id:1041020)

保罗·沃克 Paul Walker (id:1031239)

米歇尔·罗德里格兹 Michelle Rodriguez (id:1025174)

乔丹娜·布鲁斯特 Jordana Brewster (id:1000036)

盖尔·加朵 Gal Gadot (id:1044996)

约翰·奥提兹 John Ortiz (id:1018110)

拉兹·阿隆索 Laz Alonso (id:1277094)

谢伊·惠格姆 Shea Whigham (id:1165173)

莉萨·拉皮拉 Liza Lapira (id:1289436)

姜成镐 Sung Kang (id:1000166)

格雷格·西佩斯 Greg Cipes (id:1162789)

姜广涛 Guangtao Jiang (id:1317670)

范姜弘青 Roger Fan (id:1330041)

马尔科·罗德里格斯 Marco Rodríguez (id:1295873)

罗伯特·米亚诺 Robert Miano (id:1027980)

约瑟夫·朱利安·索里亚 Joseph Julian Soria (id:1332389)

唐·奥马尔 Don Omar (id:1225669)

袁文忠 Ron Yuan (id:1032226)

莫尼克·加布里埃拉·库尔内 Monique Gabriela Curnen (id:1170513)

Naureen Zaim Naureen Zaim (id:1169903)

小尼尔·布朗 Neil Brown Jr. (id:1074435)

格雷格·科林斯 Greg Collins (id:1071934)

威尔莫·卡德隆 Wilmer Calderon (id:1045385)

布兰登·T·杰克逊 Brandon T. Jackson (id:1031906)

大卫·扎赫迪安 David Zahedian (id:1174734)

布伦丹·维恩 Brendan Wayne (id:1179077)

霍利.韦伯 Holly Weber (id:1259531)

Barnaby Barrilla (id:1247286)

JR Garcia (id:1246280)

Gilbert Joseph Gilbert Joseph (id:1177415)

约翰·爱德华·李 John Edward Lee (id:1239256)

唐·泰 Don Tai (id:1224767)

特戈·卡尔德隆 Tego Calderon (id:1222722)

贝基·奥唐诺休 Becky O'Donohue (id:1222102)

克里斯汀·德·卢卡 Kristen De Luca (id:1210784)

杰拉德·加纳 Jerald Garner (id:1201628)

Mycole Metcalf Mycole Metcalf (id:1194355)

米尔塔·米切尔 Mirtha Michelle (id:1193996)

阿萨夫·科恩 Assaf Cohen (id:1192548)

路易斯·蒙卡达 Luis Moncada (id:1189325)

尼尔·H·莫瑞兹 Neal H. Moritz (id:1019194)

里卡多·德尔里奥 Ricardo Del Río (id:1006062)

范·迪塞尔 Vin Diesel (id:1041020)

布莱恩·泰勒 Brian Tyler (id:1276412)

阿米尔·M·莫克里 Amir M. Mokri (id:1018539)

弗雷德·拉斯金 Fred Raskin (id:1030425)

克里斯蒂安·瓦格纳 Christian Wagner (id:1300243)

兰迪·希勒 Randi Hiller (id:1286647)

萨拉·芬兰 Sarah Finn (id:1283741)

伊达·兰多姆 Ida Random (id:1295222)

David Lazan David Lazan (id:1289572)

Tristan Paris Bourne Tristan Paris Bourne (id:1033988)

道格拉斯·A·莫瓦特 Douglas A. Mowat (id:1292643)

萨尼娅·米尔科维奇·海斯 Sanja Milkovic Hays (id:1051411)

里克·斯特拉顿 Rick Stratton (id:1298538)

Deborah Holmes Dobson Deborah Holmes Dobson (id:1282514)

Ken Niederbaumer Ken Niederbaumer (id:1129426)

克里斯蒂安·汀斯利 Christien Tinsley (id:1299294)

Gerald Quist Gerald Quist (id:1295086)

Linda D. Flowers Linda D. Flowers (id:1283887)

特里·伦纳德 Terry Leonard (id:1289809)

Lynn Struiksma Lynn Struiksma (id:1150628)

Steven Hacker Steven Hacker (id:1008582)

米克·罗杰斯 Mic Rodgers (id:1295865)

文森特·拉斯库梅斯 Vincent Lascoumes (id:1055845)

夏伊娜·霍尔姆斯 Shaina Holmes (id:1197723)

菲奥娜·坎贝尔·韦斯特盖特 Fiona Campbell Westgate (id:1201212)

塞巴斯蒂安·韦耶 Sebastien Veilleux (id:1202841)

克里斯托尔·道德 Crystal Dowd (id:1282662)

罗伯特·罗尔斯 Robert Rowles (id:1213856)

Radost Yonkova Radost Yonkova (id:1214126)

Sebastien Betsch (id:1225484)

马克·安德烈·萨姆森 Marc-Andre Samson (id:1296592)

Mike Wassel Mike Wassel (id:1300479)

特雷弗·杨 Trevor Young (id:1164006)

埃里克·布鲁威勒 Erik Bruhwiler (id:1308923)

Richard Mahon Richard Mahon (id:1306429)

丹·格列齐斯 Dan Trezise (id:1304842)

Yoshi DeHerrera Yoshi DeHerrera (id:1170636)

拉乌尔·博洛尼尼 Raoul Bolognini (id:1174697)

James Michael Miller James Michael Miller (id:1205080)

Frank Berbert (id:1245756)

Ryan Swanno (id:1229343)

András Sz?cs (id:1233289)

安德鲁·M·柯林斯 Andrew M. Collins (id:1235116)

莱斯·伯恩斯汀 Les Bernstien (id:1278498)

罗伯·菲利普斯 Rob Phillips (id:1272318)

Ben Taylor (id:1264644)

Adam Blank (id:1259608)

马克·弗伦德 Mark Freund (id:1284190)

克里斯托弗·斯维特 Christopher Sweet (id:1259038)

Chris Ung (id:1253591)

Michael Kory Michael Kory (id:1288909)

Allen Rose Allen Rose (id:1243951)

Tamás Fiedler (id:1241848)

Amol Dighe (id:1241736)

阿曼多·贝拉斯克斯 Armando Velazquez (id:1240672)

布莱恩·福尔摩斯 Brian Holmes (id:1240351)

卡尔·弗雷茨 Carl Frytz (id:1239348)

Stephanie Greenquist (id:1254110)

马特·格洛弗 Matt Glover (id:1239062)

Szvák Antal (id:1235296)

乔什·莫索蒂 Josh Mossotti (id:1310131)

皮特·汉森 Pete Hanson (id:1102387)

伊莲·埃塞克斯·汤普森 Elaine Essex Thompson (id:1303464)

Mark R. Wilkins Mark R. Wilkins (id:1022259)

克里斯·道森 Chris Dawson (id:1021167)

凯西·艾伦 Casey Allen (id:1020582)

凯文·夸特曼 Kevin Quatman (id:1020123)

萨德·贝尔 Thad Beier (id:1017285)

安东尼·哈里斯 Anthony Harris (id:1017246)

格雷格·施特劳斯 Greg Strause (id:1014448)

Rafal Kaniewski Rafal Kaniewski (id:1310313)

科林·施特劳斯 Colin Strause (id:1041429)

兰迪·布朗 Randy Brown (id:1075754)

Mike L. Murphy Mike L. Murphy (id:1129105)

Jim O'Hagan Jim O'Hagan (id:1126364)

罗伯特·明斯克 Robert Minsk (id:1116366)

丹·拉扎洛 Dan Lazarow (id:1106331)

弗雷泽·丘吉尔 Frazer Churchill (id:1034294)

布莱恩·哈纳伯 Brian Hanable (id:1090997)

克里斯汀·布拉南 Kristen Branan (id:1078302)

麦克·冈瑟 Mike Gunther (id:1346354)

◎标 签 动作 / 赛车 / 美国 / 速度与激情 / 犯罪 / 飙车 / 2009 / VinDiesel

◎简 介

在《速度与激情1》中,为了逃避警察的追捕,多米尼克(范·迪塞尔 Vin Diesel 饰)离开洛杉矶一直流亡于多米尼加共和国。而一车价值140万美金的石油装载车让蛰伏多年的多米尼克再次驾车驰骋起来。而这时,却传来红颜知己莉迪(米歇尔·罗德里格兹 Michelle Rodriguez 饰)惨死的消息。为了查明真相,满腔怒火的多米尼克再次孤身赶回美国。原来,莉迪是为了获得赦免多米尼克的机会,而协助警局抓捕大毒枭坎波斯(约翰·奥提兹 John Ortiz 饰)。不过出于习惯,坎波斯将运送毒品后的莉迪杀人灭口。这样,一边是为女友报仇的多米尼克,一边是历练多年的警探布莱恩(保罗·沃克 Paul Walker 饰),两人再次携手,目标直指大毒枭巴尔加。一场急速复仇就此展开……

《速度与激情4》沿用了第三部东京漂移的华裔导演林诣彬,剧情上跳过第三部,直接承袭第二部...

◎获奖情况 (共4项)

第18届MTV电影奖 (2009)

MTV电影奖 最佳男演员(提名)

└──范·迪塞尔 (id:1041020)

第11届美国青少年选择奖 (2009)

最佳动作冒险电影(提名)

最佳动作冒险电影男演员(提名)

└──保罗·沃克 (id:1031239)

最佳动作冒险电影女演员

└──乔丹娜·布鲁斯特 (id:1000036)

  1. ##### MediaInfo ######

  2. General

  3. Complete name : 速度与激情[email protected].mp4

  4. Format : MPEG-4

  5. Format profile : Base Media

  6. Codec ID : isom (isom/iso2/mp41)

  7. File size : 11.2 GiB

  8. Duration : 1 h 46 min

  9. Overall bit rate : 15.1 Mb/s

  10. Writing application : OurTV Multimedia Platform


  11. Video

  12. ID : 1

  13. Format : HEVC

  14. Format/Info : High Efficiency Video Coding

  15. Format profile : [email protected]@Main

  16. Codec ID : hev1

  17. Codec ID/Info : High Efficiency Video Coding

  18. Duration : 1 h 46 min

  19. Source duration : 1 h 46 min

  20. Bit rate : 14.4 Mb/s

  21. Width : 3 840 pixels

  22. Height : 2 160 pixels

  23. Display aspect ratio : 16:9

  24. Frame rate mode : Constant

  25. Frame rate : 25.000 FPS

  26. Color space : YUV

  27. Chroma subsampling : 4:2:0

  28. Bit depth : 8 bits

  29. Bits/(Pixel*Frame) : 0.070

  30. Stream size : 10.8 GiB (96%)

  31. Source stream size : 10.8 GiB (96%)

  32. Writing library : x265 1.3+55-c21ddfe6a6d9e234:[Windows][GCC 4.8.3][64 bit]

  33. Encoding settings : wpp / ctu=64 / tu-intra-depth=1 / tu-inter-depth=1 / me=1 / subme=2 / merange=57 / no-rect / no-amp / max-merge=2 / no-early-skip / no-fast-cbf / rdpenalty=0 / no-tskip / no-tskip-fast / strong-intra-smoothing / no-lossless / no-cu-lossless / no-constrained-intra / no-fast-intra / open-gop / interlace=0 / keyint=250 / min-keyint=25 / NTMzNTQ=uuDQuD2mJt9fsCf / scenecut=40 / rc-lookahead=20 / bframes=4 / bframe-bias=0 / b-adapt=2 / ref=3 / weightp / no-weightb / aq-mode=2 / aq-strength=1.00 / cbqpoffs=0 / crqpoffs=0 / rd=3 / psy-rd=0.00 / psy-rdoq=0.00 / signhide / lft / sao / sao-lcu-bounds=0 / sao-lcu-opt=1 / b-pyramid / cutree / rc=abr / bitrate=15000 / ratetol=1.0 / qcomp=0.60 / qpmin=0 / qpmax=51 / qpstep=4 / vbv-maxrate=20000 / vbv-bufsize=5000 / ipratio=1.40 / pbratio=1.30

  34. mdhd_Duration : 6405326

  35. Codec configuration box : hvcC


  36. Audio

  37. ID : 2

  38. Format : AC-3

  39. Format/Info : Audio Coding 3

  40. Commercial name : Dolby Digital

  41. Codec ID : ac-3

  42. Duration : 1 h 46 min

  43. Bit rate mode : Constant

  44. Bit rate : 640 kb/s

  45. Channel(s) : 6 channels

  46. Channel layout : L R C LFE Ls Rs

  47. Sampling rate : 48.0 kHz

  48. Frame rate : 31.250 FPS (1536 SPF)

  49. Compression mode : Lossy

  50. Stream size : 489 MiB (4%)

  51. Service kind : Complete Main

  52. Default : Yes

  53. Alternate group : 1




复制代码



文件下载


除非特别注明,本文『速度与激情4[中文字幕].Fast.and.Furious.2009.2160p.WEB-DL.H265.DD5.1-btbt9527.COM 11.24GB』来源于互联网机器人自动抓取,非本站原创。 浮游电影网不对本文拥有版权,如有侵犯,请联系邮箱:fuyouu#yandex.com[#换成@]投诉。我们会在15个工作日内删除。 但烦请转载时请标明出处:“本文转载于『浮游电影网』,原文地址:https://www.fuyouu.com/19030.html

评论吧骚年!

发表你的见解   

昵称*

E-mail*(建议输入,以便收到博主回复的提示邮件)

验证码*

您可以使用eMule或eMule Mod(Windows)、aMule(Win、Linux、Mac)等软件下载eD2k链接。。
eMule收藏集(.emulecollection)文件是您选中的所有链接的列表文件。eMule可以直接下载它们。
按住SHIFT键选择可以选中多个选择框。
可用文件名和大小选择器来选择文件。
文件名选择器帮您根据文件名称或后缀来选择文件。不分大小写。
符号使用:
和:空格( )、+
不包含:-
或:|
转义:一对英文引号("");
匹配开头:^
匹配结尾:$
例如:
选中所有名称中包含有“eMule”或“0.49c”字眼,但不包含有“exe”字眼的:emule|0.49c -exe
选中所有名称的开头是“eMule”,结尾是“0.49c”的:^emule 0.49c$
选中所有名称中带有“eMule 0.49c”的(必须是“eMule 0.49c”,中间没有别的字符,不能是“eMule fake 0.49c”),需要转义:"emule 0.49c"
大小选择器帮您根据文件大小选择文件。