当前位置: 首页 >> 欧美电影 >> 神龟岛[国语配音/中文字幕].The.Turtle.Island.2021.1080p.WEB-DL.H264.DDP2.0-bt9527.cc 1.05GB >> 正文

神龟岛[国语配音/中文字幕].The.Turtle.Island.2021.1080p.WEB-DL.H264.DDP2.0-bt9527.cc 1.05GB

2021年11月27日 11:03:37     电影发布:来源于网络     电影分类:欧美电影     评论(0)    

神龟岛[国语配音/中文字幕].The.Turtle.Island.2021.1080p.WEB DL.H264.DDP2.0 bt9527.cc 1.05GB 奇幻片 冒险片 欧美电影  第1张

◎译 名 神龟岛 / 仙人岛

◎年 代 2021

◎产 地 中国大陆

◎类 别 奇幻 / 冒险

◎语 言 汉语普通话

◎上映日期 2021-11-26(中国大陆网络)

◎IMDb链接 https://www.imdb.com/title//

◎豆瓣链接 https://movie.douban.com/subject/35295285/

◎导 演 黄祖权 Cho Kuen Wong (id:1316785)

◎演 员 汪卓成 Zhuocheng Wang (id:1418954)

肖向飞 Xiangfei Xiao (id:1440774)

赖雨濛 Yumeng Lai (id:1356192)

郑国霖 Guolin Zheng (id:1275878)

◎标 签 网大 / 电视剧 / 东方飞云 / 2021 / 聊斋 / 汪卓成 / 垃圾剧

◎简 介

王勉出海寻找失踪的兄长,不想突遇海妖袭击风浪席卷,船破人亡的危难之时海上凭空现出传说中的救人仙岛,便与同船乘客一同上岛避难。仙岛之上琼楼仙境美轮美奂,更有仙女芸芷代岛主招待众人,窈窕仙女缥缈仙景,还有佳肴晚宴令众人忘却遇难险情,安顿下来。然而同船乘客却接连失踪,登岛的船只也被人偷走,王勉一行被困仙岛,互相猜疑,乘客中哪一个是潜藏背后的借皮妖魔?神龟袭击,少年能否找到兄长逃出这个吃人仙岛?

  1. ##### MediaInfo ######

  2. General

  3. Unique ID : 3834151130652766163490494634107936016 (0x2E26E3EE82A3D1F57B1B5CCB1A91D10)

  4. Complete name : 神龟岛[email protected]M.mkv

  5. Format : Matroska

  6. Format version : Version 4

  7. File size : 1.05 GiB

  8. Duration : 1 h 8 min

  9. Overall bit rate : 2 196 kb/s

  10. Encoded date : UTC 2021-11-26 02:26:12

  11. Writing application : mkvmerge v56.1.0 ('My Friend') 64-bit

  12. Writing library : libebml v1.4.2 + libmatroska v1.6.4


  13. Video

  14. ID : 2

  15. Format : AVC

  16. Format/Info : Advanced Video Codec

  17. Format profile : [email protected]

  18. Format settings : CABAC / 4 Ref Frames

  19. Format settings, CABAC : Yes

  20. Format settings, Reference frames : 4 frames

  21. Codec ID : V_MPEG4/ISO/AVC

  22. Duration : 1 h 8 min

  23. Bit rate : 1 939 kb/s

  24. Width : 1 920 pixels

  25. Height : 870 pixels

  26. Display aspect ratio : 2.2:1

  27. Frame rate mode : Constant

  28. Frame rate : 24.000 FPS

  29. Color space : YUV

  30. Chroma subsampling : 4:2:0

  31. Bit depth : 8 bits

  32. Scan type : Progressive

  33. Bits/(Pixel*Frame) : 0.048

  34. Stream size : 953 MiB (88%)

  35. Writing library : ptw-1.0.137 rcm-adapt vs-93 vwk

  36. Default : Yes

  37. Forced : No

  38. Color range : Limited

  39. Color primaries : BT.709

  40. Transfer characteristics : BT.709

  41. Matrix coefficients : BT.709


  42. Audio

  43. ID : 1

  44. Format : E-AC-3

  45. Format/Info : Enhanced AC-3

  46. Commercial name : Dolby Digital Plus

  47. Codec ID : A_EAC3

  48. Duration : 1 h 8 min

  49. Bit rate mode : Constant

  50. Bit rate : 256 kb/s

  51. Channel(s) : 2 channels

  52. Channel layout : L R

  53. Sampling rate : 48.0 kHz

  54. Frame rate : 31.250 FPS (1536 SPF)

  55. Compression mode : Lossy

  56. Stream size : 126 MiB (12%)

  57. Service kind : Complete Main

  58. Default : Yes

  59. Forced : No




复制代码



文件下载


除非特别注明,本文『神龟岛[国语配音/中文字幕].The.Turtle.Island.2021.1080p.WEB-DL.H264.DDP2.0-bt9527.cc 1.05GB』来源于互联网机器人自动抓取,非本站原创。 浮游电影网不对本文拥有版权,如有侵犯,请联系邮箱:fuyouu#yandex.com[#换成@]投诉。我们会在15个工作日内删除。 但烦请转载时请标明出处:“本文转载于『浮游电影网』,原文地址:https://www.fuyouu.com/19023.html

评论吧骚年!

发表你的见解   

昵称*

E-mail*(建议输入,以便收到博主回复的提示邮件)

验证码*

您可以使用eMule或eMule Mod(Windows)、aMule(Win、Linux、Mac)等软件下载eD2k链接。。
eMule收藏集(.emulecollection)文件是您选中的所有链接的列表文件。eMule可以直接下载它们。
按住SHIFT键选择可以选中多个选择框。
可用文件名和大小选择器来选择文件。
文件名选择器帮您根据文件名称或后缀来选择文件。不分大小写。
符号使用:
和:空格( )、+
不包含:-
或:|
转义:一对英文引号("");
匹配开头:^
匹配结尾:$
例如:
选中所有名称中包含有“eMule”或“0.49c”字眼,但不包含有“exe”字眼的:emule|0.49c -exe
选中所有名称的开头是“eMule”,结尾是“0.49c”的:^emule 0.49c$
选中所有名称中带有“eMule 0.49c”的(必须是“eMule 0.49c”,中间没有别的字符,不能是“eMule fake 0.49c”),需要转义:"emule 0.49c"
大小选择器帮您根据文件大小选择文件。