当前位置: 首页 >> 日韩电影 >> 母亲[简繁字幕].Kabei.Our.Mother.2008.BluRay.1080p.DTS-HD.MA5.1.x265.10bit-bt9527.cc 13.28GB >> 正文

母亲[简繁字幕].Kabei.Our.Mother.2008.BluRay.1080p.DTS-HD.MA5.1.x265.10bit-bt9527.cc 13.28GB

2021年11月27日 10:48:32     电影发布:来源于网络     电影分类:日韩电影     评论(0)    

母亲[简繁字幕].Kabei.Our.Mother.2008.BluRay.1080p.DTS HD.MA5.1.x265.10bit bt9527.cc 13.28GB 家庭片 剧情片 日韩电影  第1张

◎译 名 母亲 / Kabei: Our Mother

◎片 名 母べえ

◎年 代 2008

◎产 地 日本

◎类 别 剧情 / 家庭

◎语 言 日语

◎上映日期 2008-01-26(日本)

◎IMDb链接 https://www.imdb.com/title/tt0855852/

◎豆瓣评分 8.6/10 (9097人评价)

◎豆瓣链接 https://movie.douban.com/subject/2000741/

◎片 长 133分钟

◎导 演 山田洋次 Y?ji Yamada (id:1162794)

◎编 剧 山田洋次 Y?ji Yamada (id:1162794)

平松惠美子 Emiko Hiramatsu (id:1305787)

野上照代 Teruyo Nogami (id:1320266)

◎演 员 吉永小百合 Sayuri Yoshinaga (id:1033094)

浅野忠信 Tadanobu Asano (id:1036630)

檀丽 Rei Dan (id:1023592)

志田未来 Mirai Shida (id:1045964)

佐藤未来 Miku Sat? (id:1319508)

坂东三津五郎 Mitsugoro Bando (id:1006612)

笹野高史 Takashi Sasano (id:1012794)

绪方义博 Denden (id:1316641)

近藤公园 K?en Kond? (id:1029875)

中村梅之助 Umenosuke Nakamura (id:1007535)

田中真弓 Mayumi Tanaka (id:1016801)

倍赏千惠子 Chieko Baish? (id:1056635)

户田惠子 Keiko Toda (id:1051741)

富泽美智惠 Michie Tomizawa (id:1029487)

吹越满 Mitsuru Fukikoshi (id:1008302)

笑福亭鹤瓶 Tsurubei Shofukutei (id:1275493)

乡里大辅 Daisuke G?ri (id:1008152)

西原久美子 Kumiko Nishihara (id:1048912)

大泷秀治 Hideji ?taki (id:1136973)

铃木瑞穗 Mizuho Suzuki (id:1030549)

赤冢真人 Makoto Akatsuka (id:1034536)

片冈富枝 Tomie Kataoka (id:1327138)

北山雅康 Masayasu Kitayama (id:1004237)

天田益男 Masuo Amada (id:1008856)

植村喜八郎 Kihachiro Uemura (id:1213635)

左时枝 Tokie Hidari (id:1001859)

小林稔侍 Nenji Kobayashi (id:1008326)

富田勋 Isao Tomita (id:1046594)

长沼六男 Mutsuo Naganuma (id:1292872)

石井岩 Iwao Ishii (id:1287398)

出川三男 Mitsuo Degawa (id:1305779)

◎标 签 日本 / 山田洋次 / 日本电影 / 吉永小百合 / 浅野忠信 / 母亲 / 溫情 / 2008

◎简 介

1940年,日本一方面深陷中国战场,另一方面与英美等国关系日益紧张。居住在东京的野上一家本来过着平静而幸福的生活。只是在这战争年代,幸福是多么奢侈和脆弱的一件事。身为进步作家的一家之长野上滋(坂东三津五郎 饰)因左倾思想被当局以妨害治安维持法的罪名逮捕,不久即受迫害致死。妻子佳代(吉永小百合 饰)强忍悲痛,坚强地抚养一双女儿初子(志田未来 饰)与照美(佐藤未来 饰)。他用自己一生的幸福和无私的母爱,护佑着孩子们健康成长……

本片根据黑泽明生前的御用场记野上照代所创作的自传体小说《给父亲的安魂曲》改编。

◎获奖情况 (共14项)

第58届柏林国际电影节 (2008)

金熊奖 最佳影片(提名)

└──山田洋次 (id:1162794)

第32届日本电影学院奖 (2009)

最佳影片(提名)

最佳导演(提名)

└──山田洋次 (id:1162794)

最佳编剧(提名)

最佳女主角(提名)

└──吉永小百合 (id:1033094)

最佳男配角(提名)

└──浅野忠信 (id:1036630)

最佳女配角(提名)

└──檀丽 (id:1023592)

最佳配乐(提名)

└──富田勋 (id:1046594)

最佳摄影(提名)

└──长沼六男 (id:1292872)

最佳美术指导(提名)

└──出川三男 (id:1305779)

最佳照明(提名)

└──中须岳士 (id:1308268)

最佳录音(提名)

└──岸田和美 (id:1305843)

最佳剪辑(提名)

└──石井岩 (id:1287398)

第3届亚洲电影大奖 (2009)

最佳女主角(提名)

└──吉永小百合 (id:1033094)

  1. ##### MediaInfo ######

  2. General

  3. Unique ID : 144240783706847098123772078079320951275 (0x6C83C3B346BE8E739A8F77060E1689EB)

  4. Complete name : K[email protected]BBQDDQ.COM.mkv

  5. Format : Matroska

  6. Format version : Version 4

  7. File size : 13.3 GiB

  8. Duration : 2 h 13 min

  9. Overall bit rate mode : Variable

  10. Overall bit rate : 14.3 Mb/s

  11. Encoded date : UTC 2021-11-25 12:17:37

  12. Writing application : mkvmerge v49.0.0 ('Sick Of Losing Soulmates') 64-bit

  13. Writing library : libebml v1.4.0 + libmatroska v1.6.1


  14. Video

  15. ID : 1

  16. Format : HEVC

  17. Format/Info : High Efficiency Video Coding

  18. Format profile : Main [email protected]@High

  19. Codec ID : V_MPEGH/ISO/HEVC

  20. Duration : 2 h 13 min

  21. Bit rate : 11.7 Mb/s

  22. Width : 1 920 pixels

  23. Height : 1 038 pixels

  24. Display aspect ratio : 1.85:1

  25. Frame rate mode : Constant

  26. Frame rate : 23.976 (24000/1001/53354) FPS

  27. Color space : YUV

  28. Chroma subsampling : 4:2:0

  29. Bit depth : 10 bits

  30. Bits/(Pixel*Frame) : 0.245

  31. Stream size : 10.9 GiB (82%)

  32. Title : HEVC, [email protected]@High, 24/1.001 fps @ 11715 kbps

  33. Writing library : x265 3.4+14-gd419c7152:[Windows][GCC 10.2.0][64 bit] 10bit

  34. Encoding settings : cpuid=533541111039 / frame-threads=4 / numa-pools=16 / wpp / pmode / pme / no-psnr / no-ssim / log-level=2 / input-csp=1 / input-res=1920x1038 / interlace=0 / total-frames=191423 / level-idc=51 / high-tier=1 / uhd-bd=0 / ref=5 / no-allow-non-conformance / no-repeat-headers / annexb / no-aud / no-hrd / info / hash=0 / no-temporal-layers / open-gop / min-keyint=24 / keyint=240 / gop-lookahead=0 / bframes=6 / b-adapt=2 / b-pyramid / bframe-bias=0 / rc-lookahead=40 / lookahead-slices=0 / NTMzNTQ=uuDQuD2mJt9fsCf / scenecut=40 / hist-scenecut=0 / radl=0 / no-splice / no-intra-refresh / ctu=32 / min-cu-size=8 / no-rect / no-amp / max-tu-size=32 / tu-inter-depth=3 / tu-intra-depth=3 / limit-tu=4 / rdoq-level=2 / dynamic-rd=0.00 / no-ssim-rd / signhide / no-tskip / nr-intra=0 / nr-inter=0 / no-constrained-intra / no-strong-intra-smoothing / max-merge=4 / limit-refs=1 / limit-modes / me=3 / subme=4 / merange=25 / temporal-mvp / no-frame-dup / no-hme / weightp / weightb / no-analyze-src-pics / deblock=-3:-3 / no-sao / no-sao-non-deblock / rd=6 / selective-sao=0 / no-early-skip / rskip / no-fast-intra / no-tskip-fast / no-cu-lossless / b-intra / no-splitrd-skip / rdpenalty=0 / psy-rd=2.00 / psy-rdoq=1.00 / no-rd-refine / no-lossless / cbqpoffs=0 / crqpoffs=0 / rc=crf / crf=18.5 / qcomp=0.65 / qpstep=4 / stats-write=0 / stats-read=0 / vbv-maxrate=80000 / vbv-bufsize=80000 / vbv-init=0.9 / crf-max=0.0 / crf-min=0.0 / ipratio=1.40 / pbratio=1.30 / aq-mode=2 / aq-strength=0.85 / cutree / zone-count=0 / no-strict-cbr / qg-size=32 / no-rc-grain / qpmax=69 / qpmin=0 / no-const-vbv / sar=1 / overscan=0 / videoformat=5 / range=0 / colorprim=1 / transfer=1 / colormatrix=1 / chromaloc=0 / display-window=0 / cll=0,0 / min-luma=0 / max-luma=1023 / log2-max-poc-lsb=8 / vui-timing-info / vui-hrd-info / slices=1 / no-opt-qp-pps / no-opt-ref-list-length-pps / no-multi-pass-opt-rps / scenecut-bias=0.05 / hist-threshold=0.03 / no-opt-cu-delta-qp / no-aq-motion / no-hdr10 / no-hdr10-opt / no-dhdr10-opt / no-idr-recovery-sei / analysis-reuse-level=0 / analysis-save-reuse-level=0 / analysis-load-reuse-level=0 / scale-factor=0 / refine-intra=0 / refine-inter=0 / refine-mv=1 / refine-ctu-distortion=0 / no-limit-sao / ctu-info=0 / no-lowpass-dct / refine-analysis-type=0 / copy-pic=1 / max-ausize-factor=1.0 / no-dynamic-refine / no-single-sei / no-hevc-aq / no-svt / no-field / qp-adaptation-range=1.00 / no-scenecut-aware-qpconformance-window-offsets / right=0 / bottom=0 / NTMzNTQ= / decoder-max-rate=0

  35. Language : English

  36. Default : Yes

  37. Forced : No

  38. Color range : Limited

  39. Color primaries : BT.709

  40. Transfer characteristics : BT.709

  41. Matrix coefficients : BT.709


  42. Audio

  43. ID : 2

  44. Format : DTS XLL

  45. Format/Info : Digital Theater Systems

  46. Commercial name : DTS-HD Master Audio

  47. Codec ID : A_DTS

  48. Duration : 2 h 13 min

  49. Bit rate mode : Variable

  50. Bit rate : 2 410 kb/s

  51. Channel(s) : 6 channels

  52. Channel layout : C L R Ls Rs LFE

  53. Sampling rate : 48.0 kHz

  54. Frame rate : 93.750 FPS (512 SPF)

  55. Bit depth : 16 bits

  56. Compression mode : Lossless

  57. Stream size : 2.24 GiB (17%)

  58. Title : Japanese DTS-HD Master Audio 5.1 @ 2410 kbps

  59. Language : Japanese

  60. Default : Yes

  61. Forced : No


  62. Text #1

  63. ID : 3

  64. Format : PGS

  65. Codec ID : S_HDMV/PGS

  66. Codec ID/Info : Picture based subtitle format used on BDs/HD-DVDs

  67. Duration : 2 h 11 min

  68. Bit rate : 96.6 kb/s

  69. Count of elements : 5743

  70. Stream size : 90.8 MiB (1%)

  71. Title : Jpn/SUP

  72. Language : Japanese

  73. Default : No

  74. Forced : No


  75. Text #2

  76. ID : 4

  77. Format : PGS

  78. Codec ID : S_HDMV/PGS

  79. Codec ID/Info : Picture based subtitle format used on BDs/HD-DVDs

  80. Duration : 2 h 12 min

  81. Bit rate : 30.2 kb/s

  82. Count of elements : 3664

  83. Stream size : 28.6 MiB (0%)

  84. Title : Chs/SUP 简体

  85. Language : Chinese

  86. Default : Yes

  87. Forced : No


  88. Text #3

  89. ID : 5

  90. Format : PGS

  91. Codec ID : S_HDMV/PGS

  92. Codec ID/Info : Picture based subtitle format used on BDs/HD-DVDs

  93. Duration : 2 h 12 min

  94. Bit rate : 30.8 kb/s

  95. Count of elements : 3664

  96. Stream size : 29.2 MiB (0%)

  97. Title : Cht/SUP 繁体

  98. Language : English

  99. Default : No

  100. Forced : No


  101. Menu

  102. 00:00:00.000 : en:第 01 章

  103. 00:04:46.619 : en:第 02 章

  104. 00:11:28.229 : en:第 03 章

  105. 00:21:35.750 : en:第 04 章

  106. 00:33:11.864 : en:第 05 章

  107. 00:39:52.222 : en:第 06 章

  108. 00:45:38.402 : en:第 07 章

  109. 00:49:47.985 : en:第 08 章

  110. 00:55:00.922 : en:第 09 章

  111. 01:05:20.666 : en:第 10 章

  112. 01:10:11.582 : en:第 11 章

  113. 01:17:21.886 : en:第 12 章

  114. 01:25:17.987 : en:第 13 章

  115. 01:34:07.224 : en:第 14 章

  116. 01:42:47.786 : en:第 15 章

  117. 01:47:12.216 : en:第 16 章

  118. 01:51:54.666 : en:第 17 章

  119. 01:59:44.301 : en:第 18 章

  120. 02:05:07.082 : en:第 19 章




复制代码



文件下载


除非特别注明,本文『母亲[简繁字幕].Kabei.Our.Mother.2008.BluRay.1080p.DTS-HD.MA5.1.x265.10bit-bt9527.cc 13.28GB』来源于互联网机器人自动抓取,非本站原创。 浮游电影网不对本文拥有版权,如有侵犯,请联系邮箱:fuyouu#yandex.com[#换成@]投诉。我们会在15个工作日内删除。 但烦请转载时请标明出处:“本文转载于『浮游电影网』,原文地址:https://www.fuyouu.com/19016.html

评论吧骚年!

发表你的见解   

昵称*

E-mail*(建议输入,以便收到博主回复的提示邮件)

验证码*

您可以使用eMule或eMule Mod(Windows)、aMule(Win、Linux、Mac)等软件下载eD2k链接。。
eMule收藏集(.emulecollection)文件是您选中的所有链接的列表文件。eMule可以直接下载它们。
按住SHIFT键选择可以选中多个选择框。
可用文件名和大小选择器来选择文件。
文件名选择器帮您根据文件名称或后缀来选择文件。不分大小写。
符号使用:
和:空格( )、+
不包含:-
或:|
转义:一对英文引号("");
匹配开头:^
匹配结尾:$
例如:
选中所有名称中包含有“eMule”或“0.49c”字眼,但不包含有“exe”字眼的:emule|0.49c -exe
选中所有名称的开头是“eMule”,结尾是“0.49c”的:^emule 0.49c$
选中所有名称中带有“eMule 0.49c”的(必须是“eMule 0.49c”,中间没有别的字符,不能是“eMule fake 0.49c”),需要转义:"emule 0.49c"
大小选择器帮您根据文件大小选择文件。