当前位置: 首页 >> 动画电影 >> 功夫小兔侠[国语配音/中文字幕].Kung.Fu.Little.Rabbit.2017.2160p.WEB-DL.H265.DD2.0-bt9527.cc 14.28GB >> 正文

功夫小兔侠[国语配音/中文字幕].Kung.Fu.Little.Rabbit.2017.2160p.WEB-DL.H265.DD2.0-bt9527.cc 14.28GB

2021年11月27日 10:47:15     电影发布:来源于网络     电影分类:动画电影     评论(0)    

功夫小兔侠[国语配音/中文字幕].Kung.Fu.Little.Rabbit.2017.2160p.WEB DL.H265.DD2.0 bt9527.cc 14.28GB 动画片 喜剧片 动画电影  第1张

◎译 名 功夫小兔侠

◎年 代 2017

◎产 地 中国大陆

◎类 别 喜剧 / 动画

◎语 言 汉语普通话

◎上映日期 2017-06-01(中国大陆)

◎IMDb链接 https://www.imdb.com/title//

◎豆瓣链接 https://movie.douban.com/subject/26820394/

◎片 长 82分钟

◎导 演 董大可 Dake Dong (id:1346102)

马元 Yuan Ma (id:1317056)

◎标 签 动画 / 儿童 / 国产动画片 / 兔子 / 中国大陆 / 功夫 / 2017 / 喜剧

◎简 介

兔二、玄影等功夫学校的小伙伴们每天在学校里开心的练武,快乐的生活。突然有一天,功夫学校对面一夜之间冒出一家充满科技感的“神府学校”,吸引了大批小朋友去报名。于是,两家学校就开始了一场“传统”与“科技”的较量……。功夫学校的老师接连失踪,同学一个个离去,兔二、玄影两个性格迥异的孩子默默的守护着自己深爱的学校。这时,一些奇奇怪怪的机器人出现在他们的面前…… 咔嚓、咔嚓、 呲………

  1. ##### MediaInfo ######

  2. General

  3. Complete name : 功夫小兔侠[email protected].COM.mp4

  4. Format : MPEG-4

  5. Format profile : Base Media

  6. Codec ID : isom (isom/iso2/mp41)

  7. File size : 14.3 GiB

  8. Duration : 1 h 21 min

  9. Overall bit rate : 25.2 Mb/s

  10. Writing application : OurTV Multimedia Platform


  11. Video

  12. ID : 1

  13. Format : HEVC

  14. Format/Info : High Efficiency Video Coding

  15. Format profile : [email protected]@High

  16. Codec ID : hev1

  17. Codec ID/Info : High Efficiency Video Coding

  18. Duration : 1 h 21 min

  19. Bit rate : 24.8 Mb/s

  20. Width : 3 840 pixels

  21. Height : 2 160 pixels

  22. Display aspect ratio : 16:9

  23. Frame rate mode : Constant

  24. Frame rate : 25.000 FPS

  25. Color space : YUV

  26. Chroma subsampling : 4:2:0

  27. Bit depth : 8 bits

  28. Bits/(Pixel*Frame) : 0.119

  29. Stream size : 14.1 GiB (98%)

  30. Writing library : PONTUS-series

  31. Color range : Limited

  32. Codec configuration box : hvcC


  33. Audio

  34. ID : 2

  35. Format : AC-3

  36. Format/Info : Audio Coding 3

  37. Commercial name : Dolby Digital

  38. Codec ID : ac-3

  39. Duration : 1 h 21 min

  40. Bit rate mode : Constant

  41. Bit rate : 384 kb/s

  42. Channel(s) : 2 channels

  43. Channel layout : L R

  44. Sampling rate : 48.0 kHz

  45. Frame rate : 31.250 FPS (1536 SPF)

  46. Compression mode : Lossy

  47. Stream size : 223 MiB (2%)

  48. Service kind : Complete Main

  49. Default : Yes

  50. Alternate group : 1




复制代码



文件下载


除非特别注明,本文『功夫小兔侠[国语配音/中文字幕].Kung.Fu.Little.Rabbit.2017.2160p.WEB-DL.H265.DD2.0-bt9527.cc 14.28GB』来源于互联网机器人自动抓取,非本站原创。 浮游电影网不对本文拥有版权,如有侵犯,请联系邮箱:fuyouu#yandex.com[#换成@]投诉。我们会在15个工作日内删除。 但烦请转载时请标明出处:“本文转载于『浮游电影网』,原文地址:https://www.fuyouu.com/19015.html

评论吧骚年!

发表你的见解   

昵称*

E-mail*(建议输入,以便收到博主回复的提示邮件)

验证码*

您可以使用eMule或eMule Mod(Windows)、aMule(Win、Linux、Mac)等软件下载eD2k链接。。
eMule收藏集(.emulecollection)文件是您选中的所有链接的列表文件。eMule可以直接下载它们。
按住SHIFT键选择可以选中多个选择框。
可用文件名和大小选择器来选择文件。
文件名选择器帮您根据文件名称或后缀来选择文件。不分大小写。
符号使用:
和:空格( )、+
不包含:-
或:|
转义:一对英文引号("");
匹配开头:^
匹配结尾:$
例如:
选中所有名称中包含有“eMule”或“0.49c”字眼,但不包含有“exe”字眼的:emule|0.49c -exe
选中所有名称的开头是“eMule”,结尾是“0.49c”的:^emule 0.49c$
选中所有名称中带有“eMule 0.49c”的(必须是“eMule 0.49c”,中间没有别的字符,不能是“eMule fake 0.49c”),需要转义:"emule 0.49c"
大小选择器帮您根据文件大小选择文件。