当前位置: 首页 >> 日韩电影 >> 生活艰难所以快乐[简繁字幕].Pikanchi.Double.Life.is.Hard.Therefore.Happy.2004.BluRay.1080p.DTS-HD.MA5.1.x265.10bi >> 正文

生活艰难所以快乐[简繁字幕].Pikanchi.Double.Life.is.Hard.Therefore.Happy.2004.BluRay.1080p.DTS-HD.MA5.1.x265.10bi

2021年11月27日 10:44:00     电影发布:来源于网络     电影分类:日韩电影     评论(0)    

生活艰难所以快乐[简繁字幕].Pikanchi.Double.Life.is.Hard.Therefore.Happy.2004.BluRay.1080p.DTS HD.MA5.1.x265.10bi 剧情片 日韩电影  第1张

◎译 名 生活艰难所以快乐 / Pika☆☆nchi Double Life Is Hard Dakara Happy

◎片 名 ピカ☆☆ンチ LIFE IS HARDだからHAPPY

◎年 代 2004

◎产 地 日本

◎类 别 剧情

◎语 言 日语

◎上映日期 2004-03-01

◎IMDb链接 https://www.imdb.com/title/tt0757922/

◎豆瓣评分 8.6/10 (6747人评价)

◎豆瓣链接 https://movie.douban.com/subject/1507140/

◎片 长 106分钟

◎导 演 堤幸彦 Yukihiko Tsutsumi (id:1041908)

◎编 剧 井之原快彦 Yoshihiko Inohara (id:1046783)

◎演 员 大野智 Satoshi Ohno (id:1233486)

樱井翔 Sh? Sakurai (id:1178655)

相叶雅纪 Masaki Aiba (id:1014946)

二宫和也 Kazunari Ninomiya (id:1018351)

松本润 Jun Matsumoto (id:1050319)

村松利史 Toshifumi Muramatsu (id:1313716)

宫地真绪 Mao Miyaji (id:1275350)

秋山菜津子 Natsuko Akiyama (id:1341461)

皆川猿时 Sarutoki Minagawa (id:1007687)

樱井淳子 Atsuko Sakurai (id:1314859)

有吉弘行 Ariyoshi Hiroiki (id:1313977)

上岛龙兵 Ry?hei Ueshima (id:1212549)

山崎一 Hajime Yamazaki (id:1054024)

伴杏里 Anri Ban (id:1052474)

井之原快彦 Yoshihiko Inohara (id:1046783)

水川麻美 Asami Mizukawa (id:1023587)

大林丈史 Takeshi ?bayashi (id:1008387)

◎标 签 ARASHI / 日本电影 / 日本 / 二宫和也 / 青春 / 嵐 / 松本润 / 大野智

◎简 介

故事承接第一部,讲述二叶廉太郎(松本润饰)、贵田春彦(大野智饰)、恩田琢磨(二宫和也饰)、鸭川忠(樱井翔饰)和冈野瞬(相叶雅纪饰)五位少年自高校毕业后,各自展开自己的人生之路。在相隔三年之后的某一天,在机缘巧合下几人重新聚首在一起。在美国从事音乐活动的恩田琢磨突然回到日本,而二叶廉太郎却行踪不明。再次相逢在一起的四人,回到了当时合租的八盐住宅区。然而物是人非的是,正在计划新建高级住宅城的自治团体与反对改建的居民之间发生了激烈的纠纷。

由日本导演堤幸彦执导的青春电影《生活艰难所以快乐》,由日本五人偶像组合杰尼斯偶像团体岚担任主演。

  1. ##### MediaInfo ######

  2. General

  3. Unique ID : 247859098051723201277325881402820087095 (0xBA77ED074D3158920B213A131BD34D37)

  4. Complete name : Pikanchi.Double.Life.is.Hard.[email protected]BBQDDQ.COM.mkv

  5. Format : Matroska

  6. Format version : Version 4

  7. File size : 9.46 GiB

  8. Duration : 1 h 44 min

  9. Overall bit rate mode : Variable

  10. Overall bit rate : 12.9 Mb/s

  11. Encoded date : UTC 2021-11-24 10:48:47

  12. Writing application : mkvmerge v49.0.0 ('Sick Of Losing Soulmates') 64-bit

  13. Writing library : libebml v1.4.0 + libmatroska v1.6.1


  14. Video

  15. ID : 1

  16. Format : HEVC

  17. Format/Info : High Efficiency Video Coding

  18. Format profile : Main [email protected]@High

  19. Codec ID : V_MPEGH/ISO/HEVC

  20. Duration : 1 h 44 min

  21. Bit rate : 10.7 Mb/s

  22. Width : 1 920 pixels

  23. Height : 1 080 pixels

  24. Display aspect ratio : 16:9

  25. Frame rate mode : Constant

  26. Frame rate : 23.976 (24000/1001/53354) FPS

  27. Color space : YUV

  28. Chroma subsampling : 4:2:0

  29. Bit depth : 10 bits

  30. Bits/(Pixel*Frame) : 0.216

  31. Stream size : 7.84 GiB (83%)

  32. Title : HEVC, [email protected]@High, 24/1.001 fps @ 10714 kbps

  33. Writing library : x265 3.4+14-gd419c7152:[Windows][GCC 10.2.0][64 bit] 10bit

  34. Encoding settings : cpuid=533541111039 / frame-threads=3 / numa-pools=8 / wpp / pmode / pme / no-psnr / no-ssim / log-level=2 / input-csp=1 / input-res=1920x1080 / interlace=0 / total-frames=150720 / level-idc=51 / high-tier=1 / uhd-bd=0 / ref=5 / no-allow-non-conformance / no-repeat-headers / annexb / no-aud / no-hrd / info / hash=0 / no-temporal-layers / open-gop / min-keyint=24 / keyint=240 / gop-lookahead=0 / bframes=6 / b-adapt=2 / b-pyramid / bframe-bias=0 / rc-lookahead=40 / lookahead-slices=0 / NTMzNTQ=uuDQuD2mJt9fsCf / scenecut=40 / hist-scenecut=0 / radl=0 / no-splice / no-intra-refresh / ctu=32 / min-cu-size=8 / no-rect / no-amp / max-tu-size=32 / tu-inter-depth=3 / tu-intra-depth=3 / limit-tu=4 / rdoq-level=2 / dynamic-rd=0.00 / no-ssim-rd / signhide / no-tskip / nr-intra=0 / nr-inter=0 / no-constrained-intra / no-strong-intra-smoothing / max-merge=4 / limit-refs=1 / limit-modes / me=3 / subme=4 / merange=25 / temporal-mvp / no-frame-dup / no-hme / weightp / weightb / no-analyze-src-pics / deblock=-3:-3 / no-sao / no-sao-non-deblock / rd=6 / selective-sao=0 / no-early-skip / rskip / no-fast-intra / no-tskip-fast / no-cu-lossless / b-intra / no-splitrd-skip / rdpenalty=0 / psy-rd=2.00 / psy-rdoq=1.00 / no-rd-refine / no-lossless / cbqpoffs=0 / crqpoffs=0 / rc=crf / crf=18.5 / qcomp=0.65 / qpstep=4 / stats-write=0 / stats-read=0 / vbv-maxrate=80000 / vbv-bufsize=80000 / vbv-init=0.9 / crf-max=0.0 / crf-min=0.0 / ipratio=1.40 / pbratio=1.30 / aq-mode=2 / aq-strength=0.85 / cutree / zone-count=0 / no-strict-cbr / qg-size=32 / no-rc-grain / qpmax=69 / qpmin=0 / no-const-vbv / sar=1 / overscan=0 / videoformat=5 / range=0 / colorprim=1 / transfer=1 / colormatrix=1 / chromaloc=0 / display-window=0 / cll=0,0 / min-luma=0 / max-luma=1023 / log2-max-poc-lsb=8 / vui-timing-info / vui-hrd-info / slices=1 / no-opt-qp-pps / no-opt-ref-list-length-pps / no-multi-pass-opt-rps / scenecut-bias=0.05 / hist-threshold=0.03 / no-opt-cu-delta-qp / no-aq-motion / no-hdr10 / no-hdr10-opt / no-dhdr10-opt / no-idr-recovery-sei / analysis-reuse-level=0 / analysis-save-reuse-level=0 / analysis-load-reuse-level=0 / scale-factor=0 / refine-intra=0 / refine-inter=0 / refine-mv=1 / refine-ctu-distortion=0 / no-limit-sao / ctu-info=0 / no-lowpass-dct / refine-analysis-type=0 / copy-pic=1 / max-ausize-factor=1.0 / no-dynamic-refine / no-single-sei / no-hevc-aq / no-svt / no-field / qp-adaptation-range=1.00 / no-scenecut-aware-qpconformance-window-offsets / right=0 / bottom=0 / NTMzNTQ= / decoder-max-rate=0

  35. Language : English

  36. Default : Yes

  37. Forced : No

  38. Color range : Limited

  39. Color primaries : BT.709

  40. Transfer characteristics : BT.709

  41. Matrix coefficients : BT.709


  42. Audio

  43. ID : 2

  44. Format : DTS XLL

  45. Format/Info : Digital Theater Systems

  46. Commercial name : DTS-HD Master Audio

  47. Codec ID : A_DTS

  48. Duration : 1 h 44 min

  49. Bit rate mode : Variable

  50. Bit rate : 2 128 kb/s

  51. Channel(s) : 6 channels

  52. Channel layout : C L R Ls Rs LFE

  53. Sampling rate : 48.0 kHz

  54. Frame rate : 93.750 FPS (512 SPF)

  55. Bit depth : 16 bits

  56. Compression mode : Lossless

  57. Stream size : 1.56 GiB (16%)

  58. Title : Japanese DTS-HD Master Audio 5.1 @ 2128 kbps

  59. Language : Japanese

  60. Default : Yes

  61. Forced : No


  62. Text #1

  63. ID : 3

  64. Format : PGS

  65. Codec ID : S_HDMV/PGS

  66. Codec ID/Info : Picture based subtitle format used on BDs/HD-DVDs

  67. Duration : 1 h 37 min

  68. Bit rate : 29.0 kb/s

  69. Count of elements : 3031

  70. Stream size : 20.3 MiB (0%)

  71. Title : Eng/SUP

  72. Language : English

  73. Default : No

  74. Forced : No


  75. Text #2

  76. ID : 4

  77. Format : PGS

  78. Codec ID : S_HDMV/PGS

  79. Codec ID/Info : Picture based subtitle format used on BDs/HD-DVDs

  80. Duration : 1 h 37 min

  81. Bit rate : 26.0 kb/s

  82. Count of elements : 3031

  83. Stream size : 18.2 MiB (0%)

  84. Title : Chs/SUP 简体

  85. Language : Chinese

  86. Default : Yes

  87. Forced : No


  88. Text #3

  89. ID : 5

  90. Format : PGS

  91. Codec ID : S_HDMV/PGS

  92. Codec ID/Info : Picture based subtitle format used on BDs/HD-DVDs

  93. Duration : 1 h 37 min

  94. Bit rate : 31.7 kb/s

  95. Count of elements : 3031

  96. Stream size : 22.2 MiB (0%)

  97. Title : Cht/SUP 繁体

  98. Language : Chinese

  99. Default : No

  100. Forced : No


  101. Menu

  102. 00:00:00.000 : en:第 01 章

  103. 00:00:55.347 : en:第 02 章

  104. 00:02:58.637 : en:第 03 章

  105. 00:05:28.662 : en:第 04 章

  106. 00:07:10.096 : en:第 05 章

  107. 00:08:41.020 : en:第 06 章

  108. 00:10:28.002 : en:第 07 章

  109. 00:16:32.158 : en:第 08 章

  110. 00:21:41.759 : en:第 09 章

  111. 00:22:22.633 : en:第 10 章

  112. 00:24:23.754 : en:第 11 章

  113. 00:24:39.228 : en:第 12 章

  114. 00:25:45.711 : en:第 13 章

  115. 00:26:34.593 : en:第 14 章

  116. 00:27:04.915 : en:第 15 章

  117. 00:27:28.605 : en:第 16 章

  118. 00:28:18.655 : en:第 17 章

  119. 00:28:45.724 : en:第 18 章

  120. 00:30:16.106 : en:第 19 章

  121. 00:30:42.632 : en:第 20 章

  122. 00:31:18.502 : en:第 21 章

  123. 00:31:48.115 : en:第 22 章

  124. 00:32:10.053 : en:第 23 章

  125. 00:32:31.241 : en:第 24 章

  126. 00:33:04.274 : en:第 25 章

  127. 00:33:15.619 : en:第 26 章

  128. 00:33:44.022 : en:第 27 章

  129. 00:33:57.827 : en:第 28 章

  130. 00:34:45.292 : en:第 29 章

  131. 00:34:56.219 : en:第 30 章

  132. 00:35:27.834 : en:第 31 章

  133. 00:35:50.982 : en:第 32 章

  134. 00:36:01.493 : en:第 33 章

  135. 00:36:14.005 : en:第 34 章

  136. 00:36:39.364 : en:第 35 章

  137. 00:38:05.116 : en:第 36 章

  138. 00:38:37.524 : en:第 37 章

  139. 00:39:00.255 : en:第 38 章

  140. 00:39:47.385 : en:第 39 章

  141. 00:40:48.988 : en:第 40 章

  142. 00:41:15.973 : en:第 41 章

  143. 00:42:07.066 : en:第 42 章

  144. 00:42:46.022 : en:第 43 章

  145. 00:43:24.769 : en:第 44 章

  146. 00:43:58.803 : en:第 45 章

  147. 00:47:26.177 : en:第 46 章

  148. 00:48:39.416 : en:第 47 章

  149. 00:49:08.070 : en:第 48 章

  150. 00:49:50.613 : en:第 49 章

  151. 00:52:39.365 : en:第 50 章

  152. 00:53:15.901 : en:第 51 章

  153. 00:55:19.316 : en:第 52 章

  154. 00:55:43.632 : en:第 53 章

  155. 00:56:55.454 : en:第 54 章

  156. 00:57:06.757 : en:第 55 章

  157. 00:57:25.025 : en:第 56 章

  158. 00:57:50.092 : en:第 57 章

  159. 00:57:57.933 : en:第 58 章

  160. 01:00:39.761 : en:第 59 章

  161. 01:00:58.655 : en:第 60 章

  162. 01:01:32.480 : en:第 61 章

  163. 01:02:01.301 : en:第 62 章

  164. 01:02:43.468 : en:第 63 章

  165. 01:02:52.143 : en:第 64 章

  166. 01:04:36.247 : en:第 65 章

  167. 01:04:58.353 : en:第 66 章

  168. 01:05:07.821 : en:第 67 章

  169. 01:05:39.394 : en:第 68 章

  170. 01:07:31.673 : en:第 69 章

  171. 01:07:58.032 : en:第 70 章

  172. 01:08:39.991 : en:第 71 章

  173. 01:08:56.966 : en:第 72 章

  174. 01:09:33.711 : en:第 73 章

  175. 01:09:54.399 : en:第 74 章

  176. 01:10:30.560 : en:第 75 章

  177. 01:10:45.992 : en:第 76 章

  178. 01:10:58.045 : en:第 77 章

  179. 01:11:11.809 : en:第 78 章

  180. 01:11:51.891 : en:第 79 章

  181. 01:13:27.069 : en:第 80 章

  182. 01:14:26.796 : en:第 81 章

  183. 01:14:51.362 : en:第 82 章

  184. 01:15:05.418 : en:第 83 章

  185. 01:15:28.983 : en:第 84 章

  186. 01:15:43.748 : en:第 85 章

  187. 01:16:09.190 : en:第 86 章

  188. 01:16:34.715 : en:第 87 章

  189. 01:18:10.102 : en:第 88 章

  190. 01:18:32.333 : en:第 89 章

  191. 01:19:15.918 : en:第 90 章

  192. 01:21:54.368 : en:第 91 章

  193. 01:24:32.859 : en:第 92 章

  194. 01:29:49.426 : en:第 93 章

  195. 01:32:31.463 : en:第 94 章

  196. 01:34:30.540 : en:第 95 章

  197. 01:39:22.874 : en:第 96 章




复制代码



文件下载


除非特别注明,本文『生活艰难所以快乐[简繁字幕].Pikanchi.Double.Life.is.Hard.Therefore.Happy.2004.BluRay.1080p.DTS-HD.MA5.1.x265.10bi』来源于互联网机器人自动抓取,非本站原创。 浮游电影网不对本文拥有版权,如有侵犯,请联系邮箱:fuyouu#yandex.com[#换成@]投诉。我们会在15个工作日内删除。 但烦请转载时请标明出处:“本文转载于『浮游电影网』,原文地址:https://www.fuyouu.com/19013.html

评论吧骚年!

发表你的见解   

昵称*

E-mail*(建议输入,以便收到博主回复的提示邮件)

验证码*

您可以使用eMule或eMule Mod(Windows)、aMule(Win、Linux、Mac)等软件下载eD2k链接。。
eMule收藏集(.emulecollection)文件是您选中的所有链接的列表文件。eMule可以直接下载它们。
按住SHIFT键选择可以选中多个选择框。
可用文件名和大小选择器来选择文件。
文件名选择器帮您根据文件名称或后缀来选择文件。不分大小写。
符号使用:
和:空格( )、+
不包含:-
或:|
转义:一对英文引号("");
匹配开头:^
匹配结尾:$
例如:
选中所有名称中包含有“eMule”或“0.49c”字眼,但不包含有“exe”字眼的:emule|0.49c -exe
选中所有名称的开头是“eMule”,结尾是“0.49c”的:^emule 0.49c$
选中所有名称中带有“eMule 0.49c”的(必须是“eMule 0.49c”,中间没有别的字符,不能是“eMule fake 0.49c”),需要转义:"emule 0.49c"
大小选择器帮您根据文件大小选择文件。