当前位置: 首页 >> 国产电影 >> 最好的我们[国语音轨/简体字幕].My.Best.Summer.2019.BluRay.1080p.DTS-HD.MA5.1.x265.10bit 7.73GB >> 正文

最好的我们[国语音轨/简体字幕].My.Best.Summer.2019.BluRay.1080p.DTS-HD.MA5.1.x265.10bit 7.73GB

2021年11月27日 10:42:23     电影发布:来源于网络     电影分类:国产电影     评论(0)    

最好的我们[国语音轨/简体字幕].My.Best.Summer.2019.BluRay.1080p.DTS HD.MA5.1.x265.10bit 7.73GB 爱情片 剧情片 国产电影  第1张

◎译 名 最好的我们 / 最好的我们电影版 / My Best Summer

◎年 代 2019

◎产 地 中国大陆

◎类 别 剧情 / 爱情

◎语 言 汉语普通话

◎上映日期 2019-06-06(中国大陆)

◎IMDb链接 https://www.imdb.com/title/tt10195976/

◎豆瓣评分 5.2/10 (104936人评价)

◎豆瓣链接 https://movie.douban.com/subject/26266919/

◎片 长 110分钟

◎导 演 章笛沙 Disha Zhang (id:1335266)

◎编 剧 章笛沙 Disha Zhang (id:1335266)

黄斌 Bin Huang (id:1346156)

黄墨奇 (id:1418999)

八月长安 Wanhui Liu (id:1354006)

◎演 员 陈飞宇 Feiyu Chen (id:1366646)

何蓝逗 Lan He (id:1376538)

惠英红 Kara Wai Ying Hung (id:1016847)

陶慧敏 Huimin Tao (id:1274871)

汪苏泷 Sulong Wang (id:1374972)

董力 Li Dong (id:1363047)

蒋紫嫣 Ziyan Jiang (id:1411979)

周楚濋 Chu-chu Zhou (id:1275152)

方文强 Wenqiang Fang (id:1357771)

王初伊 Lingyu Wang (id:1345569)

高文峰 Wending Gao (id:1357770)

陈帅 Shuai Chen (id:1410680)

秦昊 Jeff Qin (id:1357111)

张小厚 Xiaohou Zhang (id:1357126)

许梦圆 Mengyuan Xu (id:1362595)

喇培康 Peikang La (id:1397763)

黄斌 Bin Huang (id:1346156)

龚宇 Yu Gong (id:1406734)

江平 Ping Jiang (id:1275114)

赵海城 Haicheng Zhao (id:1392082)

陈聪聪 Congcong Chen (id:1365529)

许建海 Jianhai Xu (id:1384186)

亚宁 Ning Ya (id:1354961)

康利 Li Kang (id:1397561)

陈建骐 Chien-Ci Chen (id:1316643)

邓旭 Xu Deng (id:1424679)

奚仲文 Chung-Man Hai (id:1275027)

王丹戎 Danrong Wang (id:1276106)

海瑞 Pino.Rea (id:1445093)

◎标 签 青春 / 校园 / 爱情 / 成长 / 回忆 / 小说改编 / 中国大陆 / 2019

◎简 介

耿耿(何蓝逗 饰)是一名技艺十分精湛的女摄影师,在学生时代,她有过一段无疾而终的青涩恋情,这段恋情至今依然深深的影响着耿耿。时间转回数年前,彼时的耿耿还是身穿校服的懵懂少女,在老师的安排下,她和学校里成绩最好的帅气男孩余淮(陈飞宇 饰)成为了同桌,他们一个是学渣,一个是学霸,互补的性格令两人之间很快就碰撞出了火花。

随着时间的推移,耿耿和余淮的感情从最初的友情一步一步的成长,两人许下了美好的约定,约好了考入同一所城市的同一间大学。然而,在约定之日的那一天到来之时,余淮竟然人间蒸发了,从此音信全无。

◎获奖情况 (共1项)

第11届澳门国际电影节 (2019)

金莲花奖 演员新人奖

└──陈飞宇 (id:1366646)

  1. ##### MediaInfo ######

  2. General

  3. Unique ID : 228246841197954491982792281663287039992 (0xABB6BE1C2E19A134BC2EF87076BF97F8)

  4. Complete name : [email protected]BQDDQ.COM.mkv

  5. Format : Matroska

  6. Format version : Version 4

  7. File size : 7.73 GiB

  8. Duration : 1 h 49 min

  9. Overall bit rate mode : Variable

  10. Overall bit rate : 10.1 Mb/s

  11. Encoded date : UTC 2021-11-25 11:17:23

  12. Writing application : mkvmerge v49.0.0 ('Sick Of Losing Soulmates') 64-bit

  13. Writing library : libebml v1.4.0 + libmatroska v1.6.1


  14. Video

  15. ID : 1

  16. Format : HEVC

  17. Format/Info : High Efficiency Video Coding

  18. Format profile : Main [email protected]@High

  19. Codec ID : V_MPEGH/ISO/HEVC

  20. Duration : 1 h 49 min

  21. Bit rate : 6 121 kb/s

  22. Width : 1 920 pixels

  23. Height : 722 pixels

  24. Display aspect ratio : 2.659

  25. Frame rate mode : Constant

  26. Frame rate : 24.000 FPS

  27. Color space : YUV

  28. Chroma subsampling : 4:2:0

  29. Bit depth : 10 bits

  30. Bits/(Pixel*Frame) : 0.184

  31. Stream size : 4.67 GiB (60%)

  32. Title : HEVC, [email protected]@High, 24 fps @6120 kbps

  33. Writing library : x265 3.4+14-gd419c7152:[Windows][GCC 10.2.0][64 bit] 10bit

  34. Encoding settings : cpuid=533541111039 / frame-threads=3 / numa-pools=8 / wpp / pmode / pme / no-psnr / no-ssim / log-level=2 / input-csp=1 / input-res=1920x722 / interlace=0 / total-frames=157344 / level-idc=51 / high-tier=1 / uhd-bd=0 / ref=5 / no-allow-non-conformance / no-repeat-headers / annexb / no-aud / no-hrd / info / hash=0 / no-temporal-layers / open-gop / min-keyint=24 / keyint=240 / gop-lookahead=0 / bframes=6 / b-adapt=2 / b-pyramid / bframe-bias=0 / rc-lookahead=40 / lookahead-slices=0 / NTMzNTQ=uuDQuD2mJt9fsCf / scenecut=40 / hist-scenecut=0 / radl=0 / no-splice / no-intra-refresh / ctu=32 / min-cu-size=8 / no-rect / no-amp / max-tu-size=32 / tu-inter-depth=3 / tu-intra-depth=3 / limit-tu=4 / rdoq-level=2 / dynamic-rd=0.00 / no-ssim-rd / signhide / no-tskip / nr-intra=0 / nr-inter=0 / no-constrained-intra / no-strong-intra-smoothing / max-merge=4 / limit-refs=1 / limit-modes / me=3 / subme=4 / merange=25 / temporal-mvp / no-frame-dup / no-hme / weightp / weightb / no-analyze-src-pics / deblock=-3:-3 / no-sao / no-sao-non-deblock / rd=6 / selective-sao=0 / no-early-skip / rskip / no-fast-intra / no-tskip-fast / no-cu-lossless / b-intra / no-splitrd-skip / rdpenalty=0 / psy-rd=2.00 / psy-rdoq=1.00 / no-rd-refine / no-lossless / cbqpoffs=0 / crqpoffs=0 / rc=crf / crf=17.0 / qcomp=0.65 / qpstep=4 / stats-write=0 / stats-read=0 / vbv-maxrate=80000 / vbv-bufsize=80000 / vbv-init=0.9 / crf-max=0.0 / crf-min=0.0 / ipratio=1.40 / pbratio=1.30 / aq-mode=2 / aq-strength=0.85 / cutree / zone-count=0 / no-strict-cbr / qg-size=32 / no-rc-grain / qpmax=69 / qpmin=0 / no-const-vbv / sar=1 / overscan=0 / videoformat=5 / range=0 / colorprim=1 / transfer=1 / colormatrix=1 / chromaloc=0 / display-window=0 / cll=0,0 / min-luma=0 / max-luma=1023 / log2-max-poc-lsb=8 / vui-timing-info / vui-hrd-info / slices=1 / no-opt-qp-pps / no-opt-ref-list-length-pps / no-multi-pass-opt-rps / scenecut-bias=0.05 / hist-threshold=0.03 / no-opt-cu-delta-qp / no-aq-motion / no-hdr10 / no-hdr10-opt / no-dhdr10-opt / no-idr-recovery-sei / analysis-reuse-level=0 / analysis-save-reuse-level=0 / analysis-load-reuse-level=0 / scale-factor=0 / refine-intra=0 / refine-inter=0 / refine-mv=1 / refine-ctu-distortion=0 / no-limit-sao / ctu-info=0 / no-lowpass-dct / refine-analysis-type=0 / copy-pic=1 / max-ausize-factor=1.0 / no-dynamic-refine / no-single-sei / no-hevc-aq / no-svt / no-field / qp-adaptation-range=1.00 / no-scenecut-aware-qpconformance-window-offsets / right=0 / bottom=0 / NTMzNTQ= / decoder-max-rate=0

  35. Language : English

  36. Default : Yes

  37. Forced : No

  38. Color range : Limited

  39. Color primaries : BT.709

  40. Transfer characteristics : BT.709

  41. Matrix coefficients : BT.709


  42. Audio

  43. ID : 2

  44. Format : DTS XLL

  45. Format/Info : Digital Theater Systems

  46. Commercial name : DTS-HD Master Audio

  47. Codec ID : A_DTS

  48. Duration : 1 h 49 min

  49. Bit rate mode : Variable

  50. Bit rate : 3 946 kb/s

  51. Channel(s) : 6 channels

  52. Channel layout : C L R Ls Rs LFE

  53. Sampling rate : 48.0 kHz

  54. Frame rate : 93.750 FPS (512 SPF)

  55. Bit depth : 24 bits

  56. Compression mode : Lossless

  57. Stream size : 3.01 GiB (39%)

  58. Title : Mandarin DTS-HD Master Audio 5.1 @ 3946 kbps

  59. Language : Chinese

  60. Default : Yes

  61. Forced : No


  62. Text #1

  63. ID : 3

  64. Format : PGS

  65. Codec ID : S_HDMV/PGS

  66. Codec ID/Info : Picture based subtitle format used on BDs/HD-DVDs

  67. Duration : 1 h 45 min

  68. Bit rate : 32.4 kb/s

  69. Count of elements : 2835

  70. Stream size : 24.4 MiB (0%)

  71. Title : Eng/SUP

  72. Language : English

  73. Default : No

  74. Forced : No


  75. Text #2

  76. ID : 4

  77. Format : PGS

  78. Codec ID : S_HDMV/PGS

  79. Codec ID/Info : Picture based subtitle format used on BDs/HD-DVDs

  80. Duration : 1 h 40 min

  81. Bit rate : 25.9 kb/s

  82. Count of elements : 2752

  83. Stream size : 18.7 MiB (0%)

  84. Title : Chs/SUP 原盘简体

  85. Language : Chinese

  86. Default : Yes

  87. Forced : No


  88. Menu

  89. 00:00:00.000 : en:绗?01 绔?

  90. 00:04:17.417 : en:绗?02 绔?

  91. 00:09:17.417 : en:绗?03 绔?

  92. 00:15:21.417 : en:绗?04 绔?

  93. 00:20:55.000 : en:绗?05 绔?

  94. 00:27:05.417 : en:绗?06 绔?

  95. 00:31:45.000 : en:绗?07 绔?

  96. 00:35:26.417 : en:绗?08 绔?

  97. 00:41:26.417 : en:绗?09 绔?

  98. 00:47:51.417 : en:绗?10 绔?

  99. 00:55:17.417 : en:绗?11 绔?

  100. 01:00:01.833 : en:绗?12 绔?

  101. 01:06:26.417 : en:绗?13 绔?

  102. 01:11:22.417 : en:绗?14 绔?

  103. 01:15:50.417 : en:绗?15 绔?

  104. 01:22:34.417 : en:绗?16 绔?

  105. 01:27:04.417 : en:绗?17 绔?

  106. 01:33:28.417 : en:绗?18 绔?

  107. 01:39:13.417 : en:绗?19 绔?

  108. 01:43:04.417 : en:绗?20 绔?




复制代码



文件下载


除非特别注明,本文『最好的我们[国语音轨/简体字幕].My.Best.Summer.2019.BluRay.1080p.DTS-HD.MA5.1.x265.10bit 7.73GB』来源于互联网机器人自动抓取,非本站原创。 浮游电影网不对本文拥有版权,如有侵犯,请联系邮箱:fuyouu#yandex.com[#换成@]投诉。我们会在15个工作日内删除。 但烦请转载时请标明出处:“本文转载于『浮游电影网』,原文地址:https://www.fuyouu.com/19012.html

评论吧骚年!

发表你的见解   

昵称*

E-mail*(建议输入,以便收到博主回复的提示邮件)

验证码*

您可以使用eMule或eMule Mod(Windows)、aMule(Win、Linux、Mac)等软件下载eD2k链接。。
eMule收藏集(.emulecollection)文件是您选中的所有链接的列表文件。eMule可以直接下载它们。
按住SHIFT键选择可以选中多个选择框。
可用文件名和大小选择器来选择文件。
文件名选择器帮您根据文件名称或后缀来选择文件。不分大小写。
符号使用:
和:空格( )、+
不包含:-
或:|
转义:一对英文引号("");
匹配开头:^
匹配结尾:$
例如:
选中所有名称中包含有“eMule”或“0.49c”字眼,但不包含有“exe”字眼的:emule|0.49c -exe
选中所有名称的开头是“eMule”,结尾是“0.49c”的:^emule 0.49c$
选中所有名称中带有“eMule 0.49c”的(必须是“eMule 0.49c”,中间没有别的字符,不能是“eMule fake 0.49c”),需要转义:"emule 0.49c"
大小选择器帮您根据文件大小选择文件。