当前位置: 首页 >> 国产电影 >> 盗圣一枝梅[国语配音/中文字幕].Thief.Female.Hero.2021.2160p.WEB-DL.H265.AAC-bt9527.cc 1.41GB >> 正文

盗圣一枝梅[国语配音/中文字幕].Thief.Female.Hero.2021.2160p.WEB-DL.H265.AAC-bt9527.cc 1.41GB

2021年11月27日 10:31:43     电影发布:来源于网络     电影分类:国产电影     评论(0)    

盗圣一枝梅[国语配音/中文字幕].Thief.Female.Hero.2021.2160p.WEB DL.H265.AAC bt9527.cc 1.41GB 武侠片 古装片 冒险片 动作片 国产电影  第1张

◎译 名 盗圣一枝梅

◎年 代 2021

◎产 地 中国大陆

◎类 别 动作 / 冒险 / 武侠 / 古装

◎语 言 汉语普通话

◎上映日期 2021-11-25(中国大陆)

◎IMDb链接 https://www.imdb.com/title//

◎豆瓣链接 https://movie.douban.com/subject/35176328/

◎片 长 90分钟

◎导 演 郭虎 Hu Guo (id:1354570)

◎演 员 徐冬冬 Dongdong Xu (id:1315463)

李若希 Ruoxi Li (id:1404788)

◎标 签 大嫂古装美女 / 剧情紧凑好看 / 盗墓 / 大陆 / 古装剧 / 冒险

◎简 介

屠浮宫,一个东厂专门结交党羽和武林人士的朝庭禁地。

为了得到大明藏宝图,东厂与锦衣卫已经势如水火,于是大太监刘瑾借屠浮宫鉴宝大会之名想一举除掉锦衣卫指挥使周锦辉,却被江湖人称“盗圣一枝梅”的沈鸢搅了局。沈鸢重伤,周慕锋助其脱险,当她盗走了父亲的尸骨,回到了天机门后才得知,这一切只 是东厂设的假局,目的是抓获一枝梅,得到开启宝藏的机关破解之法。

东厂没有抓获一枝梅,也没有夺得锦衣卫手中的《云中锦书》,却意外的让锦衣卫与一枝梅站在了同一阵营。于是下发江湖令,让青野先生剿灭天机门,活捉一枝梅。而锦衣卫则派出周慕锋带人营救天机门,待接近一枝梅后伺机找到宝藏,再将沈鸢人等就地正法。于是,三方势力汇聚在京郊最有名的妓院———鸳鸯居。

一时间,天机门腹背受敌,沈鸢也踏上了逃亡之路,本以为同仇敌忾的周慕锋也只不过是心怀鬼胎……

  1. ##### MediaInfo ######

  2. General

  3. Complete name : 盗圣一枝梅[email protected]p4

  4. Format : MPEG-4

  5. Format profile : Base Media

  6. Codec ID : isom (isom/iso2/mp41)

  7. File size : 1.41 GiB

  8. Duration : 1 h 23 min

  9. Overall bit rate : 2 421 kb/s

  10. Writing application : Lavf58.17.103


  11. Video

  12. ID : 1

  13. Format : HEVC

  14. Format/Info : High Efficiency Video Coding

  15. Format profile : [email protected]@Main

  16. Codec ID : hev1

  17. Codec ID/Info : High Efficiency Video Coding

  18. Duration : 1 h 23 min

  19. Bit rate : 2 225 kb/s

  20. Width : 3 840 pixels

  21. Height : 1 632 pixels

  22. Display aspect ratio : 2.35:1

  23. Frame rate mode : Constant

  24. Frame rate : 24.000 FPS

  25. Color space : YUV

  26. Chroma subsampling : 4:2:0

  27. Bit depth : 8 bits

  28. Bits/(Pixel*Frame) : 0.015

  29. Stream size : 1.29 GiB (92%)

  30. Codec configuration box : hvcC


  31. Audio

  32. ID : 2

  33. Format : AAC LC

  34. Format/Info : Advanced Audio Codec Low Complexity

  35. Codec ID : mp4a-40-2

  36. Duration : 1 h 23 min

  37. Bit rate mode : Constant

  38. Bit rate : 192 kb/s

  39. Channel(s) : 2 channels

  40. Channel layout : L R

  41. Sampling rate : 44.1 kHz

  42. Frame rate : 43.066 FPS (1024 SPF)

  43. Compression mode : Lossy

  44. Stream size : 113 MiB (8%)

  45. Default : Yes

  46. Alternate group : 1




复制代码





文件下载


除非特别注明,本文『盗圣一枝梅[国语配音/中文字幕].Thief.Female.Hero.2021.2160p.WEB-DL.H265.AAC-bt9527.cc 1.41GB』来源于互联网机器人自动抓取,非本站原创。 浮游电影网不对本文拥有版权,如有侵犯,请联系邮箱:fuyouu#yandex.com[#换成@]投诉。我们会在15个工作日内删除。 但烦请转载时请标明出处:“本文转载于『浮游电影网』,原文地址:https://www.fuyouu.com/19010.html

评论吧骚年!

发表你的见解   

昵称*

E-mail*(建议输入,以便收到博主回复的提示邮件)

验证码*

您可以使用eMule或eMule Mod(Windows)、aMule(Win、Linux、Mac)等软件下载eD2k链接。。
eMule收藏集(.emulecollection)文件是您选中的所有链接的列表文件。eMule可以直接下载它们。
按住SHIFT键选择可以选中多个选择框。
可用文件名和大小选择器来选择文件。
文件名选择器帮您根据文件名称或后缀来选择文件。不分大小写。
符号使用:
和:空格( )、+
不包含:-
或:|
转义:一对英文引号("");
匹配开头:^
匹配结尾:$
例如:
选中所有名称中包含有“eMule”或“0.49c”字眼,但不包含有“exe”字眼的:emule|0.49c -exe
选中所有名称的开头是“eMule”,结尾是“0.49c”的:^emule 0.49c$
选中所有名称中带有“eMule 0.49c”的(必须是“eMule 0.49c”,中间没有别的字符,不能是“eMule fake 0.49c”),需要转义:"emule 0.49c"
大小选择器帮您根据文件大小选择文件。