当前位置: 首页 >> 国产电影 >> 防线——爆弹危机[国语配音/中文字幕].Defenes.Bomb.Crisis.2021.1080p.WEB-DL.H265.AAC 1.91GB >> 正文

防线——爆弹危机[国语配音/中文字幕].Defenes.Bomb.Crisis.2021.1080p.WEB-DL.H265.AAC 1.91GB

2021年11月27日 10:24:57     电影发布:来源于网络     电影分类:国产电影     评论(0)    

防线——爆弹危机[国语配音/中文字幕].Defenes.Bomb.Crisis.2021.1080p.WEB DL.H265.AAC 1.91GB 剧情片 国产电影  第1张

◎译 名 防线—爆弹危机

◎年 代 2021

◎产 地 中国大陆

◎上映日期 2021-11-24(中国大陆)

◎IMDb链接 https://www.imdb.com/title//

◎豆瓣链接 https://movie.douban.com/subject/35673801/

◎标 签 内地 / 日本 / 东京 / 日语 / 大陆 / 优酷电影 / 2021 / 日剧

  1. ##### MediaInfo ######

  2. General

  3. Complete name : 防线——爆弹危机[email protected].mp4

  4. Format : MPEG-4

  5. Format profile : Base Media

  6. Codec ID : isom (isom/iso2/mp41)

  7. File size : 1.90 GiB

  8. Duration : 1 h 8 min

  9. Overall bit rate : 3 955 kb/s

  10. Writing application : Lavf58.38.101


  11. Video

  12. ID : 1

  13. Format : HEVC

  14. Format/Info : High Efficiency Video Coding

  15. Format profile : [email protected]@Main

  16. Codec ID : hev1

  17. Codec ID/Info : High Efficiency Video Coding

  18. Duration : 1 h 8 min

  19. Bit rate : 3 759 kb/s

  20. Width : 1 920 pixels

  21. Height : 816 pixels

  22. Display aspect ratio : 2.35:1

  23. Frame rate mode : Constant

  24. Frame rate : 24.000 FPS

  25. Color space : YUV

  26. Chroma subsampling : 4:2:0

  27. Bit depth : 8 bits

  28. Bits/(Pixel*Frame) : 0.100

  29. Stream size : 1.81 GiB (95%)

  30. Codec configuration box : hvcC


  31. Audio

  32. ID : 2

  33. Format : AAC LC

  34. Format/Info : Advanced Audio Codec Low Complexity

  35. Codec ID : mp4a-40-2

  36. Duration : 1 h 8 min

  37. Bit rate mode : Constant

  38. Bit rate : 192 kb/s

  39. Channel(s) : 2 channels

  40. Channel layout : L R

  41. Sampling rate : 44.1 kHz

  42. Frame rate : 43.066 FPS (1024 SPF)

  43. Compression mode : Lossy

  44. Stream size : 93.7 MiB (5%)

  45. Default : Yes

  46. Alternate group : 1




复制代码




文件下载


除非特别注明,本文『防线——爆弹危机[国语配音/中文字幕].Defenes.Bomb.Crisis.2021.1080p.WEB-DL.H265.AAC 1.91GB』来源于互联网机器人自动抓取,非本站原创。 浮游电影网不对本文拥有版权,如有侵犯,请联系邮箱:fuyouu#yandex.com[#换成@]投诉。我们会在15个工作日内删除。 但烦请转载时请标明出处:“本文转载于『浮游电影网』,原文地址:https://www.fuyouu.com/19006.html

评论吧骚年!

发表你的见解   

昵称*

E-mail*(建议输入,以便收到博主回复的提示邮件)

验证码*

您可以使用eMule或eMule Mod(Windows)、aMule(Win、Linux、Mac)等软件下载eD2k链接。。
eMule收藏集(.emulecollection)文件是您选中的所有链接的列表文件。eMule可以直接下载它们。
按住SHIFT键选择可以选中多个选择框。
可用文件名和大小选择器来选择文件。
文件名选择器帮您根据文件名称或后缀来选择文件。不分大小写。
符号使用:
和:空格( )、+
不包含:-
或:|
转义:一对英文引号("");
匹配开头:^
匹配结尾:$
例如:
选中所有名称中包含有“eMule”或“0.49c”字眼,但不包含有“exe”字眼的:emule|0.49c -exe
选中所有名称的开头是“eMule”,结尾是“0.49c”的:^emule 0.49c$
选中所有名称中带有“eMule 0.49c”的(必须是“eMule 0.49c”,中间没有别的字符,不能是“eMule fake 0.49c”),需要转义:"emule 0.49c"
大小选择器帮您根据文件大小选择文件。