当前位置: 首页 >> 国产电影 >> 布基兰[国语配音/中文字幕].Bu.Ji.Lan.2016.2160p.WEB-DL.H265.DD2.0-bt9527.cc 16.12GB >> 正文

布基兰[国语配音/中文字幕].Bu.Ji.Lan.2016.2160p.WEB-DL.H265.DD2.0-bt9527.cc 16.12GB

2021年11月26日 09:05:59     电影发布:来源于网络     电影分类:国产电影     评论(0)    

布基兰[国语配音/中文字幕].Bu.Ji.Lan.2016.2160p.WEB DL.H265.DD2.0 bt9527.cc 16.12GB 剧情片 国产电影  第1张

◎译 名 布基兰 / 布基兰小站

◎年 代 2016

◎产 地 中国大陆

◎类 别 剧情

◎语 言 汉语普通话

◎上映日期 2016-05-06(中国大陆) / 2016-04-17(北京电影节)

◎IMDb链接 https://www.imdb.com/title/tt5045634/

◎豆瓣评分 6.0/10 (201人评价)

◎豆瓣链接 https://movie.douban.com/subject/25848260/

◎片 长 90分钟

◎导 演 安兴伟 Xingwei An (id:1356249)

◎编 剧 迟子建 Zijian Chi (id:1356823)

◎演 员 王宇 Yu Wang (id:1356250)

刘兴盛 Xingsheng Liu (id:1356251)

娜仁其木格 Na Ren Qi Mu Ge (id:1356252)

乌兰其其格 Wu Lan Qi Qi Ge (id:1327205)

丁建钧 Jianjun Ding (id:1327994)

周娜拉 Nala Zhou (id:1357464)

袁宇龙 Yulong Yuan (id:1357465)

◎标 签 剧情 / 中国大陆 / 温情 / 独立电影 / 文艺 / 小说改编 / 人性 / 东北

◎简 介

布基兰小镇的伐木工人刘志(丁建均 饰)因偷窃被警察老刘抓获,但好心的老刘(王宇 饰)看到刘志贫困的家不但没逮他还送了米和油,刘志心生愧疚,剁下自己三根手指,老刘找人帮他接了手指又因感染小镇不能医治,想尽快送他去大医院,但小站因为火车提速快车不停,当大家都在为快车不能停而担心的时候,快车在车站却意外停了下来……而整个故事都是在腊八夜的当晚发生。不同人物命运的交织让故事情暖人间。

  1. ##### MediaInfo ######

  2. General

  3. Complete name : 布基兰[email protected]

  4. Format : MPEG-4

  5. Format profile : Base Media

  6. Codec ID : isom (isom/iso2/mp41)

  7. File size : 16.1 GiB

  8. Duration : 1 h 28 min

  9. Overall bit rate : 26.1 Mb/s

  10. Writing application : OurTV Multimedia Platform


  11. Video

  12. ID : 1

  13. Format : HEVC

  14. Format/Info : High Efficiency Video Coding

  15. Format profile : [email protected]@High

  16. Codec ID : hev1

  17. Codec ID/Info : High Efficiency Video Coding

  18. Duration : 1 h 28 min

  19. Bit rate : 25.8 Mb/s

  20. Width : 3 840 pixels

  21. Height : 2 160 pixels

  22. Display aspect ratio : 16:9

  23. Frame rate mode : Variable

  24. Frame rate : 24.958 FPS

  25. Minimum frame rate : 12.500 FPS

  26. Maximum frame rate : 25.000 FPS

  27. Original frame rate : 25.000 FPS

  28. Color space : YUV

  29. Chroma subsampling : 4:2:0

  30. Bit depth : 8 bits

  31. Bits/(Pixel*Frame) : 0.124

  32. Stream size : 15.9 GiB (99%)

  33. Color range : Limited

  34. Color primaries : BT.709

  35. Transfer characteristics : BT.709

  36. Matrix coefficients : BT.709

  37. Codec configuration box : hvcC


  38. Audio

  39. ID : 2

  40. Format : AC-3

  41. Format/Info : Audio Coding 3

  42. Commercial name : Dolby Digital

  43. Codec ID : ac-3

  44. Duration : 1 h 28 min

  45. Bit rate mode : Constant

  46. Bit rate : 384 kb/s

  47. Channel(s) : 2 channels

  48. Channel layout : L R

  49. Sampling rate : 48.0 kHz

  50. Frame rate : 31.250 FPS (1536 SPF)

  51. Compression mode : Lossy

  52. Stream size : 242 MiB (1%)

  53. Service kind : Complete Main

  54. Default : Yes

  55. Alternate group : 1




复制代码



文件下载


除非特别注明,本文『布基兰[国语配音/中文字幕].Bu.Ji.Lan.2016.2160p.WEB-DL.H265.DD2.0-bt9527.cc 16.12GB』来源于互联网机器人自动抓取,非本站原创。 浮游电影网不对本文拥有版权,如有侵犯,请联系邮箱:fuyouu#yandex.com[#换成@]投诉。我们会在15个工作日内删除。 但烦请转载时请标明出处:“本文转载于『浮游电影网』,原文地址:https://www.fuyouu.com/18999.html

评论吧骚年!

发表你的见解   

昵称*

E-mail*(建议输入,以便收到博主回复的提示邮件)

验证码*

您可以使用eMule或eMule Mod(Windows)、aMule(Win、Linux、Mac)等软件下载eD2k链接。。
eMule收藏集(.emulecollection)文件是您选中的所有链接的列表文件。eMule可以直接下载它们。
按住SHIFT键选择可以选中多个选择框。
可用文件名和大小选择器来选择文件。
文件名选择器帮您根据文件名称或后缀来选择文件。不分大小写。
符号使用:
和:空格( )、+
不包含:-
或:|
转义:一对英文引号("");
匹配开头:^
匹配结尾:$
例如:
选中所有名称中包含有“eMule”或“0.49c”字眼,但不包含有“exe”字眼的:emule|0.49c -exe
选中所有名称的开头是“eMule”,结尾是“0.49c”的:^emule 0.49c$
选中所有名称中带有“eMule 0.49c”的(必须是“eMule 0.49c”,中间没有别的字符,不能是“eMule fake 0.49c”),需要转义:"emule 0.49c"
大小选择器帮您根据文件大小选择文件。