当前位置: 首页 >> 日韩电影 >> 美好的世界[中文字幕].Under.the.Open.Sky.2020.1080p.BluRay.DD5.1.x265-10bit-bt9527.cc 10.23GB >> 正文

美好的世界[中文字幕].Under.the.Open.Sky.2020.1080p.BluRay.DD5.1.x265-10bit-bt9527.cc 10.23GB

2021年11月26日 09:00:14     电影发布:来源于网络     电影分类:日韩电影     评论(0)    

美好的世界[中文字幕].Under.the.Open.Sky.2020.1080p.BluRay.DD5.1.x265 10bit bt9527.cc 10.23GB 犯罪片 剧情片 日韩电影  第1张

◎译 名 美好的世界 / 身分册 / 精彩的世界 / Under The Open Sky / 东京苍穹下(港)

◎片 名 すばらしき世界

◎年 代 2020

◎产 地 日本

◎类 别 剧情 / 犯罪

◎语 言 日语

◎上映日期 2020-09-10(多伦多电影节) / 2021-02-11(日本)

◎IMDb链接 https://www.imdb.com/title/tt12801374/

◎豆瓣评分 8.2/10 (6539人评价)

◎豆瓣链接 https://movie.douban.com/subject/34863472/

◎片 长 126分钟

◎导 演 西川美和 Miwa Nishikawa (id:1275597)

◎编 剧 西川美和 Miwa Nishikawa (id:1275597)

佐木隆三 Ryuzo Saki (id:1144723)

◎演 员 役所广司 K?ji Yakusho (id:1165478)

仲野太贺 Taiga Nagano (id:1319077)

长泽雅美 Masami Nagasawa (id:1018667)

桥爪功 Isao Hashizume (id:1053697)

梶芽衣子 Meiko Kaji (id:1000736)

北村有起哉 Yukiya Kitamura (id:1315943)

白龙 Hakuryu (id:1029800)

木村绿子 Midoriko Kimura (id:1323325)

安田成美 Narumi Yasuda (id:1038295)

六角精儿 Seiji Rokkaku (id:1312854)

諫早幸作 Kousaku Isahaya (id:1451701)

◎标 签 日本 / 日本电影 / 剧情 / 长泽雅美 / 役所广司 / 西川美和 / 2020 / 役所広司

◎简 介

改编自佐木隆三的伊藤整文学奖小说《身分帐》,以真实人物为原型,由日本著名演员役所广司出演,讲述一名前黑社会帮派分子因杀人罪被判入狱,在服刑13年后获释重返社会,发誓努力融入新的生活,然而当他被弹射到这个并不了解的美好新世界,根深蒂固的黑帮思维以及对有序社会体系语法的缺失,使他的生活反而越发变得格格不入…师从是枝裕和的西川美和导演新作以人性关怀打量个体的痛苦与希望,描绘出当代日本社会细致入微的生活壁画。

◎获奖情况 (共1项)

第15届亚洲电影大奖 (2021)

最佳男主角(提名)

└──役所广司 (id:1165478)

  1. ##### MediaInfo ######

  2. General

  3. Unique ID : 193374840747944964983393963632957136917 (0x917AA3BEB5D54ADD00EBFF10F8512015)

  4. Complete name : [email protected]DQ.COM.mkv

  5. Format : Matroska

  6. Format version : Version 4

  7. File size : 10.2 GiB

  8. Duration : 2 h 6 min

  9. Overall bit rate mode : Variable

  10. Overall bit rate : 11.6 Mb/s

  11. Movie name : Under the Open Sky 2020 1080p BluRay DD5.1 [email protected]

  12. Encoded date : UTC 2021-10-30 13:50:27

  13. Writing application : mkvmerge v38.0.0 ('The Silent Type') 64-bit

  14. Writing library : libebml v1.3.9 + libmatroska v1.5.2


  15. Video

  16. ID : 1

  17. Format : HEVC

  18. Format/Info : High Efficiency Video Coding

  19. Format profile : Main [email protected]@High

  20. Codec ID : V_MPEGH/ISO/HEVC

  21. Duration : 2 h 6 min

  22. Bit rate : 8 460 kb/s

  23. Width : 1 920 pixels

  24. Height : 1 036 pixels

  25. Display aspect ratio : 1.85:1

  26. Frame rate mode : Constant

  27. Frame rate : 23.976 (24000/1001/53354) FPS

  28. Color space : YUV

  29. Chroma subsampling : 4:2:0

  30. Bit depth : 10 bits

  31. Bits/(Pixel*Frame) : 0.177

  32. Stream size : 7.48 GiB (73%)

  33. Title : [email protected]

  34. Writing library : x265 - H.265/HEVC codec

  35. Default : Yes

  36. Forced : No


  37. Audio

  38. ID : 2

  39. Format : MLP FBA

  40. Format/Info : Meridian Lossless Packing FBA

  41. Commercial name : Dolby TrueHD

  42. Codec ID : A_TRUEHD

  43. Duration : 2 h 6 min

  44. Bit rate mode : Variable

  45. Bit rate : 3 023 kb/s

  46. Maximum bit rate : 4 437 kb/s

  47. Channel(s) : 6 channels

  48. Channel layout : L R C LFE Ls Rs

  49. Sampling rate : 48.0 kHz

  50. Frame rate : 1 200.000 FPS (40 SPF)

  51. Compression mode : Lossless

  52. Stream size : 2.67 GiB (26%)

  53. Title : Japanese

  54. Language : Japanese

  55. Default : Yes

  56. Forced : No


  57. Text

  58. ID : 3

  59. Format : PGS

  60. Muxing mode : zlib

  61. Codec ID : S_HDMV/PGS

  62. Codec ID/Info : Picture based subtitle format used on BDs/HD-DVDs

  63. Duration : 2 h 1 min

  64. Bit rate : 28.3 kb/s

  65. Count of elements : 2702

  66. Stream size : 24.6 MiB (0%)

  67. Title : CHS

  68. Language : Chinese

  69. Default : Yes

  70. Forced : No




复制代码



文件下载


除非特别注明,本文『美好的世界[中文字幕].Under.the.Open.Sky.2020.1080p.BluRay.DD5.1.x265-10bit-bt9527.cc 10.23GB』来源于互联网机器人自动抓取,非本站原创。 浮游电影网不对本文拥有版权,如有侵犯,请联系邮箱:fuyouu#yandex.com[#换成@]投诉。我们会在15个工作日内删除。 但烦请转载时请标明出处:“本文转载于『浮游电影网』,原文地址:https://www.fuyouu.com/18995.html

评论吧骚年!

发表你的见解   

昵称*

E-mail*(建议输入,以便收到博主回复的提示邮件)

验证码*

您可以使用eMule或eMule Mod(Windows)、aMule(Win、Linux、Mac)等软件下载eD2k链接。。
eMule收藏集(.emulecollection)文件是您选中的所有链接的列表文件。eMule可以直接下载它们。
按住SHIFT键选择可以选中多个选择框。
可用文件名和大小选择器来选择文件。
文件名选择器帮您根据文件名称或后缀来选择文件。不分大小写。
符号使用:
和:空格( )、+
不包含:-
或:|
转义:一对英文引号("");
匹配开头:^
匹配结尾:$
例如:
选中所有名称中包含有“eMule”或“0.49c”字眼,但不包含有“exe”字眼的:emule|0.49c -exe
选中所有名称的开头是“eMule”,结尾是“0.49c”的:^emule 0.49c$
选中所有名称中带有“eMule 0.49c”的(必须是“eMule 0.49c”,中间没有别的字符,不能是“eMule fake 0.49c”),需要转义:"emule 0.49c"
大小选择器帮您根据文件大小选择文件。