当前位置: 首页 >> 港台电影 >> 生生[国语配音/中文字幕].Sen.Sen.2017.WEB-DL.4K.H265.DDP.5.1-bt9527.cc 4.38GB >> 正文

生生[国语配音/中文字幕].Sen.Sen.2017.WEB-DL.4K.H265.DDP.5.1-bt9527.cc 4.38GB

2021年11月26日 08:58:50     电影发布:来源于网络     电影分类:港台电影     评论(0)    

生生[国语配音/中文字幕].Sen.Sen.2017.WEB DL.4K.H265.DDP.5.1 bt9527.cc 4.38GB 剧情片 港台电影  第1张

◎译 名 生生 / Sen Sen

◎年 代 2017

◎产 地 中国台湾

◎类 别 剧情

◎语 言 汉语普通话

◎上映日期 2021-04-02(中国大陆) / 2018-03-09(中国台湾) / 2017-11-04(高雄电影节)

◎IMDb链接 https://www.imdb.com/title/tt7861586/

◎豆瓣评分 7.0/10 (1568人评价)

◎豆瓣链接 https://movie.douban.com/subject/27017199/

◎片 长 99分钟(中国大陆)

◎导 演 安邦 Bon An (id:1364479)

◎编 剧 安邦 Bon An (id:1364479)

郑英敏 Ying-Min Cheng (id:1405116)

◎演 员 鲍起静 Hee Ching Paw (id:1274229)

吴至璿 Chaster Wu (id:1371845)

严艺文 Yi-Wen Yen (id:1351687)

蔡亘晏 Ken-yen Tsai (id:1371846)

孙可芳 Ke-Fang Sun (id:1390693)

◎标 签 亲情 / 温情 / 台湾 / 家庭 / 鲍起静 / 台湾电影 / 剧情 / 台灣

◎简 介

“什么是死亡?”这个问题对于刚失去哥哥的小孩子生生(吴至璿 饰)来说可能太难回答了。他拿到了哥哥的手机,发现他一直在关注一个网络直播,名叫“活过一百天”。这个直播间的明星一位叫莉莉(鲍起静 饰)的老奶奶。老奶奶被诊断出肺癌晚期,但是在很努力地生活,且已经超出了医生的预期。这两人将一起去探索到底什么是死亡这个问题……

  1. ##### MediaInfo ######

  2. General

  3. Unique ID : 117300315808246208216554980723801579854 (0x583F3814FAB0B1AEB9FFD63AF7C1E14E)

  4. Complete name : Sen Sen 2017 WEB-DL 4K H265 DDP [email protected]

  5. Format : Matroska

  6. Format version : Version 4

  7. File size : 4.38 GiB

  8. Duration : 1 h 38 min

  9. Overall bit rate : 6 354 kb/s

  10. Encoded date : UTC 2021-11-23 15:33:31

  11. Writing application : mkvmerge v62.0.0 ('Apollo') 64-bit

  12. Writing library : libebml v1.4.2 + libmatroska v1.6.4


  13. Video

  14. ID : 1

  15. Format : HEVC

  16. Format/Info : High Efficiency Video Coding

  17. Format profile : [email protected]@Main

  18. Codec ID : V_MPEGH/ISO/HEVC

  19. Duration : 1 h 38 min

  20. Bit rate : 5 965 kb/s

  21. Width : 3 840 pixels

  22. Height : 1 626 pixels

  23. Display aspect ratio : 2.35:1

  24. Frame rate mode : Constant

  25. Frame rate : 24.000 FPS

  26. Color space : YUV

  27. Chroma subsampling : 4:2:0

  28. Bit depth : 8 bits

  29. Bits/(Pixel*Frame) : 0.040

  30. Stream size : 4.11 GiB (94%)

  31. Writing library : HW265_Code

  32. Default : Yes

  33. Forced : No

  34. Color range : Limited

  35. Color primaries : BT.709

  36. Transfer characteristics : BT.709

  37. Matrix coefficients : BT.709


  38. Audio #1

  39. ID : 2

  40. Format : E-AC-3

  41. Format/Info : Enhanced AC-3

  42. Commercial name : Dolby Digital Plus

  43. Codec ID : A_EAC3

  44. Duration : 1 h 38 min

  45. Bit rate mode : Constant

  46. Bit rate : 256 kb/s

  47. Channel(s) : 6 channels

  48. Channel layout : L R C LFE Ls Rs

  49. Sampling rate : 48.0 kHz

  50. Frame rate : 31.250 FPS (1536 SPF)

  51. Compression mode : Lossy

  52. Stream size : 181 MiB (4%)

  53. Language : Chinese

  54. Service kind : Complete Main

  55. Default : Yes

  56. Forced : No


  57. Audio #2

  58. ID : 3

  59. Format : AAC LC SBR

  60. Format/Info : Advanced Audio Codec Low Complexity with Spectral Band Replication

  61. Commercial name : HE-AAC

  62. Format settings : NBC

  63. Codec ID : A_AAC-5

  64. Duration : 1 h 38 min

  65. Bit rate : 132 kb/s

  66. Channel(s) : 6 channels

  67. Channel layout : C L R Ls Rs LFE

  68. Sampling rate : 48.0 kHz

  69. Frame rate : 23.438 FPS (2048 SPF)

  70. Compression mode : Lossy

  71. Stream size : 92.5 MiB (2%)

  72. Language : Chinese

  73. Default : No

  74. Forced : No




复制代码



文件下载


除非特别注明,本文『生生[国语配音/中文字幕].Sen.Sen.2017.WEB-DL.4K.H265.DDP.5.1-bt9527.cc 4.38GB』来源于互联网机器人自动抓取,非本站原创。 浮游电影网不对本文拥有版权,如有侵犯,请联系邮箱:fuyouu#yandex.com[#换成@]投诉。我们会在15个工作日内删除。 但烦请转载时请标明出处:“本文转载于『浮游电影网』,原文地址:https://www.fuyouu.com/18994.html

评论吧骚年!

发表你的见解   

昵称*

E-mail*(建议输入,以便收到博主回复的提示邮件)

验证码*

您可以使用eMule或eMule Mod(Windows)、aMule(Win、Linux、Mac)等软件下载eD2k链接。。
eMule收藏集(.emulecollection)文件是您选中的所有链接的列表文件。eMule可以直接下载它们。
按住SHIFT键选择可以选中多个选择框。
可用文件名和大小选择器来选择文件。
文件名选择器帮您根据文件名称或后缀来选择文件。不分大小写。
符号使用:
和:空格( )、+
不包含:-
或:|
转义:一对英文引号("");
匹配开头:^
匹配结尾:$
例如:
选中所有名称中包含有“eMule”或“0.49c”字眼,但不包含有“exe”字眼的:emule|0.49c -exe
选中所有名称的开头是“eMule”,结尾是“0.49c”的:^emule 0.49c$
选中所有名称中带有“eMule 0.49c”的(必须是“eMule 0.49c”,中间没有别的字符,不能是“eMule fake 0.49c”),需要转义:"emule 0.49c"
大小选择器帮您根据文件大小选择文件。