当前位置: 首页 >> 日韩电影 >> 告白[中文字幕].Go.back.2021.1080p.TVN.WEB-DL.H264.AAC-bt9527.cc 2.88GB >> 正文

告白[中文字幕].Go.back.2021.1080p.TVN.WEB-DL.H264.AAC-bt9527.cc 2.88GB

2021年11月26日 08:57:34     电影发布:来源于网络     电影分类:日韩电影     评论(0)    

告白[中文字幕].Go.back.2021.1080p.TVN.WEB DL.H264.AAC bt9527.cc 2.88GB 犯罪片 剧情片 日韩电影  第1张

◎译 名 告白 / Go back / Ko Baek / Wracaj

◎片 名 ??

◎年 代 2020

◎产 地 韩国

◎类 别 剧情 / 犯罪

◎语 言 韩语

◎上映日期 2020-07-11(富川国际奇幻电影节) / 2020-10-13(华沙电影节) / 2021-02-17(韩国)

◎IMDb链接 https://www.imdb.com/title/tt10376384/

◎豆瓣评分 5.9/10 (102人评价)

◎豆瓣链接 https://movie.douban.com/subject/35211004/

◎片 长 99分钟

◎导 演 徐恩英 Seo Eun-young (id:1449908)

◎编 剧 徐恩英 Seo Eun-young (id:1449908)

◎演 员 朴河宣 Ha-seon Park (id:1030607)

河允庆 Yoon-kyeong Ha (id:1390914)

甘素贤 So-Hyun Gam (id:1442940)

郑恩彪 Eun-pyo Jeong (id:1113784)

◎标 签 犯罪 / 韩国 / 韩国电影 / 悬疑 / 剧情 / 2020 / 社会 / 家庭

◎简 介

入围2020年华沙电影节新导演竞赛

A film from South Korea asking questions about the link between child abuse and violence concealed behind family walls. In a world stained with violence and hurt, someone sincerely concerned and worried about you is so very important.

  1. ##### MediaInfo ######

  2. General

  3. Unique ID : 171077314165757973152845074201104837889 (0x80B44ACEA636705F35AE572FD4336D01)

  4. Complete name : [email protected]

  5. Format : Matroska

  6. Format version : Version 4

  7. File size : 2.88 GiB

  8. Duration : 1 h 39 min

  9. Overall bit rate mode : Variable

  10. Overall bit rate : 4 160 kb/s

  11. Encoded date : UTC 2021-11-23 13:24:29

  12. Writing application : mkvmerge v56.1.0 ('My Friend') 64-bit

  13. Writing library : libebml v1.4.2 + libmatroska v1.6.4


  14. Video

  15. ID : 1

  16. Format : AVC

  17. Format/Info : Advanced Video Codec

  18. Format profile : [email protected]

  19. Format settings : CABAC / 2 Ref Frames

  20. Format settings, CABAC : Yes

  21. Format settings, Reference frames : 2 frames

  22. Format settings, GOP : M=4, N=60

  23. Codec ID : V_MPEG4/ISO/AVC

  24. Duration : 1 h 39 min

  25. Bit rate mode : Variable

  26. Bit rate : 4 024 kb/s

  27. Maximum bit rate : 5 500 kb/s

  28. Width : 1 920 pixels

  29. Height : 1 080 pixels

  30. Display aspect ratio : 16:9

  31. Frame rate mode : Constant

  32. Frame rate : 23.976 (24000/1001/53354) FPS

  33. Color space : YUV

  34. Chroma subsampling : 4:2:0

  35. Bit depth : 8 bits

  36. Scan type : Progressive

  37. Bits/(Pixel*Frame) : 0.081

  38. Stream size : 2.79 GiB (97%)

  39. Language : Korean

  40. Default : Yes

  41. Forced : No


  42. Audio

  43. ID : 2

  44. Format : AAC LC

  45. Format/Info : Advanced Audio Codec Low Complexity

  46. Codec ID : A_AAC-2

  47. Duration : 1 h 39 min

  48. Bit rate : 128 kb/s

  49. Channel(s) : 2 channels

  50. Channel layout : L R

  51. Sampling rate : 48.0 kHz

  52. Frame rate : 46.875 FPS (1024 SPF)

  53. Compression mode : Lossy

  54. Stream size : 90.7 MiB (3%)

  55. Title : Korean

  56. Language : Korean

  57. Default : Yes

  58. Forced : No


  59. Text #1

  60. ID : 3

  61. Format : UTF-8

  62. Codec ID : S_TEXT/UTF8

  63. Codec ID/Info : UTF-8 Plain Text

  64. Duration : 1 h 35 min

  65. Bit rate : 39 b/s

  66. Count of elements : 1199

  67. Stream size : 27.8 KiB (0%)

  68. Title : Chinese Simplified

  69. Language : Chinese

  70. Default : Yes

  71. Forced : No


  72. Text #2

  73. ID : 4

  74. Format : UTF-8

  75. Codec ID : S_TEXT/UTF8

  76. Codec ID/Info : UTF-8 Plain Text

  77. Duration : 1 h 35 min

  78. Bit rate : 39 b/s

  79. Count of elements : 1199

  80. Stream size : 27.8 KiB (0%)

  81. Title : Chinese Traditional

  82. Language : Chinese

  83. Default : No

  84. Forced : No




复制代码



文件下载


除非特别注明,本文『告白[中文字幕].Go.back.2021.1080p.TVN.WEB-DL.H264.AAC-bt9527.cc 2.88GB』来源于互联网机器人自动抓取,非本站原创。 浮游电影网不对本文拥有版权,如有侵犯,请联系邮箱:fuyouu#yandex.com[#换成@]投诉。我们会在15个工作日内删除。 但烦请转载时请标明出处:“本文转载于『浮游电影网』,原文地址:https://www.fuyouu.com/18993.html

评论吧骚年!

发表你的见解   

昵称*

E-mail*(建议输入,以便收到博主回复的提示邮件)

验证码*

您可以使用eMule或eMule Mod(Windows)、aMule(Win、Linux、Mac)等软件下载eD2k链接。。
eMule收藏集(.emulecollection)文件是您选中的所有链接的列表文件。eMule可以直接下载它们。
按住SHIFT键选择可以选中多个选择框。
可用文件名和大小选择器来选择文件。
文件名选择器帮您根据文件名称或后缀来选择文件。不分大小写。
符号使用:
和:空格( )、+
不包含:-
或:|
转义:一对英文引号("");
匹配开头:^
匹配结尾:$
例如:
选中所有名称中包含有“eMule”或“0.49c”字眼,但不包含有“exe”字眼的:emule|0.49c -exe
选中所有名称的开头是“eMule”,结尾是“0.49c”的:^emule 0.49c$
选中所有名称中带有“eMule 0.49c”的(必须是“eMule 0.49c”,中间没有别的字符,不能是“eMule fake 0.49c”),需要转义:"emule 0.49c"
大小选择器帮您根据文件大小选择文件。