当前位置: 首页 >> 欧美电影 >> 辣身舞2:情迷哈瓦那[简繁字幕].Dirty.Dancing.Havana.Nights.2004.BluRay.1080p.DTS-HD.MA7.1.x265.10bit-bt9527 9.54GB >> 正文

辣身舞2:情迷哈瓦那[简繁字幕].Dirty.Dancing.Havana.Nights.2004.BluRay.1080p.DTS-HD.MA7.1.x265.10bit-bt9527 9.54GB

2021年11月26日 08:54:47     电影发布:来源于网络     电影分类:欧美电影     评论(0)    

辣身舞2:情迷哈瓦那[简繁字幕].Dirty.Dancing.Havana.Nights.2004.BluRay.1080p.DTS HD.MA7.1.x265.10bit bt9527 9.54GB 爱情片 剧情片 欧美电影  第1张

◎译 名 辣身舞2:情迷哈瓦那 / 热舞十七2 / 情迷哈瓦那

◎片 名 Dirty Dancing: Havana Nights

◎年 代 2004

◎产 地 美国

◎类 别 剧情 / 爱情

◎语 言 英语 / 西班牙语

◎上映日期 2004-02-27

◎IMDb链接 https://www.imdb.com/title/tt0338096/

◎豆瓣评分 8.0/10 (6349人评价)

◎豆瓣链接 https://movie.douban.com/subject/1309161/

◎片 长 86 分钟

◎导 演 盖·费尔兰德 Guy Ferland (id:1005326)

◎编 剧 鲍兹·亚金 Boaz Yakin (id:1301377)

◎演 员 迭戈·卢纳 Diego Luna (id:1013867)

萝玛拉·嘉瑞 Romola Garai (id:1022633)

雪拉·渥德 Sela Ward (id:1010583)

约翰·斯拉特里 John Slattery (id:1022661)

米卡·波瑞姆 Mika Boorem (id:1022655)

玛雅 Mya (id:1027424)

帕特里克·斯威兹 Patrick Swayze (id:1022580)

Luis Salgado Luis Salgado (id:1227288)

克劳迪娅·萨利纳斯 Claudia Salinas (id:1184908)

玛丽·波特西尔 Mary Portser (id:1130561)

马里索尔·帕迪拉·桑切斯 Marisol Padilla Sánchez (id:1130382)

阿什莉·L·安德森 Ashley L. Anderson (id:1460687)

瑞内·拉万 René Lavan (id:1111404)

Modesto Lacen Modesto Lacen (id:1109949)

Guillermo de Cun Guillermo de Cun (id:1081352)

詹纽瑞·琼斯 January Jones (id:1013762)

奥斯卡·罗德里格兹 Oskar Rodriguez (id:1028257)

希瑟·海德利 Heather Headley (id:1028337)

克里斯·恩格 Chris Engen (id:1041491)

乔纳森·杰克逊 Jonathan Jackson (id:1044928)

罗伯特·霍夫曼 Robert Hoffman (id:1049540)

安杰莉卡·阿拉贡 Angélica Aragón (id:1056650)

马特伯尔曼 Matt Birman (id:1061859)

萨拉·格林 Sarah Green (id:1285376)

劳伦斯·班德 Lawrence Bender (id:1027447)

西托·佩雷拉 Heitor Pereira (id:1350525)

Anthony B. Richmond Anthony B. Richmond (id:1012590)

Scott Richter Scott Richter (id:1295623)

明迪·马丁 Mindy Marin (id:1291003)

Teresa Carriker-Thayer Teresa Carriker-Thayer (id:1071416)

伊西斯·马森登 Isis Mussenden (id:1019610)

Myron Hoffert Myron Hoffert (id:1286759)

Robert C. Albertell Robert C. Albertell (id:1276926)

Jonathan Starch Jonathan Starch (id:1008303)

马特伯尔曼 Matt Birman (id:1061859)

Erik Dehkhoda Erik Dehkhoda (id:1048839)

吉姆·麦克斯韦 Jim Maxwell (id:1170544)

Christopher Dusendschon Christopher Dusendschon (id:1180674)

洛恩·莫尔纳 Lon Molnar (id:1051865)

◎标 签 舞蹈 / 古巴 / 爱情 / 美国 / 歌舞 / 美国电影 / 浪漫 / Dancing

◎简 介

1958年,本生活在哈瓦斯的18岁姑娘凯蒂?米勒(萝玛拉?嘉瑞 饰)随父母来到了古巴,只懂一点点西班牙文的她在这里开始了新生活。她的父亲有一份优厚的工作,生活无忧的她十分好学。本来对舞蹈就十分热爱的她遇到了英俊的侍应生杰威尔(迭戈?鲁纳 饰),杰威尔同样是一名舞蹈好手。很快他们因彼此的舞技互相吸引,可是动荡的政治环境让凯蒂的父母有了把女儿带走的念头,这对热恋中的情侣受到了考验。

这里有凯蒂热爱的舞蹈,有自己深爱的恋人,凯蒂将如何面对景况呢?

  1. ##### MediaInfo ######

  2. General

  3. Unique ID : 35633856813360364616191464249529822951 (0x1ACED4C8AD464E1EF686BF22F8896EE7)

  4. Complete name : Dirty.Dancin[email protected]BBQDDQ.COM.mkv

  5. Format : Matroska

  6. Format version : Version 4

  7. File size : 9.54 GiB

  8. Duration : 1 h 26 min

  9. Overall bit rate mode : Variable

  10. Overall bit rate : 15.8 Mb/s

  11. Encoded date : UTC 2021-11-23 08:29:30

  12. Writing application : mkvmerge v49.0.0 ('Sick Of Losing Soulmates') 64-bit

  13. Writing library : libebml v1.4.0 + libmatroska v1.6.1


  14. Video

  15. ID : 1

  16. Format : HEVC

  17. Format/Info : High Efficiency Video Coding

  18. Format profile : Main [email protected]@High

  19. Codec ID : V_MPEGH/ISO/HEVC

  20. Duration : 1 h 26 min

  21. Bit rate : 10.1 Mb/s

  22. Width : 1 920 pixels

  23. Height : 1 080 pixels

  24. Display aspect ratio : 16:9

  25. Frame rate mode : Constant

  26. Frame rate : 23.976 (24000/1001/53354) FPS

  27. Color space : YUV

  28. Chroma subsampling : 4:2:0

  29. Bit depth : 10 bits

  30. Bits/(Pixel*Frame) : 0.202

  31. Stream size : 6.05 GiB (63%)

  32. Title : HEVC, [email protected]@High, 24/1.001 fps @ 10051 kbps

  33. Writing library : x265 3.4+14-gd419c7152:[Windows][GCC 10.2.0][64 bit] 10bit

  34. Encoding settings : cpuid=533541111039 / frame-threads=4 / numa-pools=16 / wpp / pmode / pme / no-psnr / no-ssim / log-level=2 / input-csp=1 / input-res=1920x1080 / interlace=0 / total-frames=124036 / level-idc=51 / high-tier=1 / uhd-bd=0 / ref=5 / no-allow-non-conformance / no-repeat-headers / annexb / no-aud / no-hrd / info / hash=0 / no-temporal-layers / open-gop / min-keyint=24 / keyint=240 / gop-lookahead=0 / bframes=6 / b-adapt=2 / b-pyramid / bframe-bias=0 / rc-lookahead=40 / lookahead-slices=0 / NTMzNTQ=uuDQuD2mJt9fsCf / scenecut=40 / hist-scenecut=0 / radl=0 / no-splice / no-intra-refresh / ctu=32 / min-cu-size=8 / no-rect / no-amp / max-tu-size=32 / tu-inter-depth=3 / tu-intra-depth=3 / limit-tu=4 / rdoq-level=2 / dynamic-rd=0.00 / no-ssim-rd / signhide / no-tskip / nr-intra=0 / nr-inter=0 / no-constrained-intra / no-strong-intra-smoothing / max-merge=4 / limit-refs=1 / limit-modes / me=3 / subme=4 / merange=25 / temporal-mvp / no-frame-dup / no-hme / weightp / weightb / no-analyze-src-pics / deblock=-3:-3 / no-sao / no-sao-non-deblock / rd=6 / selective-sao=0 / no-early-skip / rskip / no-fast-intra / no-tskip-fast / no-cu-lossless / b-intra / no-splitrd-skip / rdpenalty=0 / psy-rd=2.00 / psy-rdoq=1.00 / no-rd-refine / no-lossless / cbqpoffs=0 / crqpoffs=0 / rc=crf / crf=18.5 / qcomp=0.65 / qpstep=4 / stats-write=0 / stats-read=0 / vbv-maxrate=80000 / vbv-bufsize=80000 / vbv-init=0.9 / crf-max=0.0 / crf-min=0.0 / ipratio=1.40 / pbratio=1.30 / aq-mode=2 / aq-strength=0.85 / cutree / zone-count=0 / no-strict-cbr / qg-size=32 / no-rc-grain / qpmax=69 / qpmin=0 / no-const-vbv / sar=1 / overscan=0 / videoformat=5 / range=0 / colorprim=1 / transfer=1 / colormatrix=1 / chromaloc=0 / display-window=0 / cll=0,0 / min-luma=0 / max-luma=1023 / log2-max-poc-lsb=8 / vui-timing-info / vui-hrd-info / slices=1 / no-opt-qp-pps / no-opt-ref-list-length-pps / no-multi-pass-opt-rps / scenecut-bias=0.05 / hist-threshold=0.03 / no-opt-cu-delta-qp / no-aq-motion / no-hdr10 / no-hdr10-opt / no-dhdr10-opt / no-idr-recovery-sei / analysis-reuse-level=0 / analysis-save-reuse-level=0 / analysis-load-reuse-level=0 / scale-factor=0 / refine-intra=0 / refine-inter=0 / refine-mv=1 / refine-ctu-distortion=0 / no-limit-sao / ctu-info=0 / no-lowpass-dct / refine-analysis-type=0 / copy-pic=1 / max-ausize-factor=1.0 / no-dynamic-refine / no-single-sei / no-hevc-aq / no-svt / no-field / qp-adaptation-range=1.00 / no-scenecut-aware-qpconformance-window-offsets / right=0 / bottom=0 / NTMzNTQ= / decoder-max-rate=0

  35. Language : English

  36. Default : Yes

  37. Forced : No

  38. Color range : Limited

  39. Color primaries : BT.709

  40. Transfer characteristics : BT.709

  41. Matrix coefficients : BT.709


  42. Audio #1

  43. ID : 2

  44. Format : DTS XLL

  45. Format/Info : Digital Theater Systems

  46. Commercial name : DTS-HD Master Audio

  47. Codec ID : A_DTS

  48. Duration : 1 h 26 min

  49. Bit rate mode : Variable

  50. Bit rate : 5 491 kb/s

  51. Channel(s) : 8 channels

  52. Channel layout : C L R LFE Lb Rb Lss Rss

  53. Sampling rate : 48.0 kHz

  54. Frame rate : 93.750 FPS (512 SPF)

  55. Bit depth : 24 bits

  56. Compression mode : Lossless

  57. Stream size : 3.31 GiB (35%)

  58. Title : English DTS-HD Master Audio 7.1 @ 5493 kbps

  59. Language : English

  60. Default : Yes

  61. Forced : No


  62. Audio #2

  63. ID : 3

  64. Format : AC-3

  65. Format/Info : Audio Coding 3

  66. Commercial name : Dolby Digital

  67. Codec ID : A_AC3

  68. Duration : 1 h 26 min

  69. Bit rate mode : Constant

  70. Bit rate : 192 kb/s

  71. Channel(s) : 2 channels

  72. Channel layout : L R

  73. Sampling rate : 48.0 kHz

  74. Frame rate : 31.250 FPS (1536 SPF)

  75. Compression mode : Lossy

  76. Stream size : 118 MiB (1%)

  77. Title : English Dolby Digital Audio 2.0 @ 192 kbps Commentary

  78. Language : English

  79. Service kind : Complete Main

  80. Default : No

  81. Forced : No


  82. Text #1

  83. ID : 4

  84. Format : PGS

  85. Codec ID : S_HDMV/PGS

  86. Codec ID/Info : Picture based subtitle format used on BDs/HD-DVDs

  87. Duration : 1 h 20 min

  88. Bit rate : 31.1 kb/s

  89. Count of elements : 1976

  90. Stream size : 18.0 MiB (0%)

  91. Title : Eng/SUP

  92. Language : English

  93. Default : No

  94. Forced : No


  95. Text #2

  96. ID : 5

  97. Format : PGS

  98. Codec ID : S_HDMV/PGS

  99. Codec ID/Info : Picture based subtitle format used on BDs/HD-DVDs

  100. Duration : 1 h 23 min

  101. Bit rate : 32.9 kb/s

  102. Count of elements : 2130

  103. Stream size : 19.5 MiB (0%)

  104. Title : Eng/SUP SDH

  105. Language : English

  106. Default : No

  107. Forced : No


  108. Text #3

  109. ID : 6

  110. Format : PGS

  111. Codec ID : S_HDMV/PGS

  112. Codec ID/Info : Picture based subtitle format used on BDs/HD-DVDs

  113. Duration : 1 h 21 min

  114. Bit rate : 23.3 kb/s

  115. Count of elements : 1644

  116. Stream size : 13.5 MiB (0%)

  117. Title : Chs/SUP 简体

  118. Language : Chinese

  119. Default : Yes

  120. Forced : No


  121. Text #4

  122. ID : 7

  123. Format : PGS

  124. Codec ID : S_HDMV/PGS

  125. Codec ID/Info : Picture based subtitle format used on BDs/HD-DVDs

  126. Duration : 1 h 21 min

  127. Bit rate : 24.3 kb/s

  128. Count of elements : 1644

  129. Stream size : 14.1 MiB (0%)

  130. Title : Cht/SUP 繁体

  131. Language : Chinese

  132. Default : No

  133. Forced : No


  134. Menu

  135. 00:00:00.000 : en:第 01 章

  136. 00:05:39.965 : en:第 02 章

  137. 00:11:52.420 : en:第 03 章

  138. 00:17:33.844 : en:第 04 章

  139. 00:20:15.798 : en:第 05 章

  140. 00:26:54.863 : en:第 06 章

  141. 00:31:22.130 : en:第 07 章

  142. 00:35:17.991 : en:第 08 章

  143. 00:40:33.222 : en:第 09 章

  144. 00:50:15.221 : en:第 10 章

  145. 00:54:01.488 : en:第 11 章

  146. 01:00:06.937 : en:第 12 章

  147. 01:06:10.133 : en:第 13 章

  148. 01:13:07.300 : en:第 14 章

  149. 01:17:05.162 : en:第 15 章

  150. 01:19:45.280 : en:第 16 章




复制代码



文件下载


除非特别注明,本文『辣身舞2:情迷哈瓦那[简繁字幕].Dirty.Dancing.Havana.Nights.2004.BluRay.1080p.DTS-HD.MA7.1.x265.10bit-bt9527 9.54GB』来源于互联网机器人自动抓取,非本站原创。 浮游电影网不对本文拥有版权,如有侵犯,请联系邮箱:fuyouu#yandex.com[#换成@]投诉。我们会在15个工作日内删除。 但烦请转载时请标明出处:“本文转载于『浮游电影网』,原文地址:https://www.fuyouu.com/18991.html

评论吧骚年!

发表你的见解   

昵称*

E-mail*(建议输入,以便收到博主回复的提示邮件)

验证码*

您可以使用eMule或eMule Mod(Windows)、aMule(Win、Linux、Mac)等软件下载eD2k链接。。
eMule收藏集(.emulecollection)文件是您选中的所有链接的列表文件。eMule可以直接下载它们。
按住SHIFT键选择可以选中多个选择框。
可用文件名和大小选择器来选择文件。
文件名选择器帮您根据文件名称或后缀来选择文件。不分大小写。
符号使用:
和:空格( )、+
不包含:-
或:|
转义:一对英文引号("");
匹配开头:^
匹配结尾:$
例如:
选中所有名称中包含有“eMule”或“0.49c”字眼,但不包含有“exe”字眼的:emule|0.49c -exe
选中所有名称的开头是“eMule”,结尾是“0.49c”的:^emule 0.49c$
选中所有名称中带有“eMule 0.49c”的(必须是“eMule 0.49c”,中间没有别的字符,不能是“eMule fake 0.49c”),需要转义:"emule 0.49c"
大小选择器帮您根据文件大小选择文件。