当前位置: 首页 >> 国产电影 >> 寻龙之发丘天棺[国语配音/中文字幕].The.Supreme.Chief.Adventure.To.The.Unknown.2021.1080p.WEB-DL.H264.AAC 1.31GB >> 正文

寻龙之发丘天棺[国语配音/中文字幕].The.Supreme.Chief.Adventure.To.The.Unknown.2021.1080p.WEB-DL.H264.AAC 1.31GB

2021年11月26日 08:53:35     电影发布:来源于网络     电影分类:国产电影     评论(0)    

寻龙之发丘天棺[国语配音/中文字幕].The.Supreme.Chief.Adventure.To.The.Unknown.2021.1080p.WEB DL.H264.AAC 1.31GB 剧情片 国产电影  第1张

◎译 名 寻龙之发丘天棺

◎年 代 2021

◎产 地 中国大陆

◎语 言 汉语普通话

◎上映日期 2021-11-24(中国大陆)

◎IMDb链接 https://www.imdb.com/title//

◎豆瓣链接 https://movie.douban.com/subject/35639840/

◎片 长 80分钟

◎演 员 文生 Sheng Wen (id:1405005)

王亚斌 Yabin Wang (id:1412028)

侍宣如 Xuanru Shi (id:1349384)

◎标 签 大陆 / 2021 / 国内 / 剧情

◎简 介

清末民初,发丘门传?向东在经历?家灭门、养?被杀的惨痛之后,被迫与英国商?合作,寻找传说中藏有起死回?之秘的九龙天棺宝藏,以报家仇。然?九龙天棺具体位置极其隐秘,向东为寻墓顺利,集结了卸岭门传?江童颜、摸?门传?潘达共同组队。在此过程中,三?探墓寻宝,躲避化解重重机关,同时与同样在寻找九龙天棺的军阀霍天豹产?冲突。在躲避霍天豹追杀之时,三?逐渐放下堤防,同?协?,终于找到了九龙天棺的真正位置。?此时也被霍天豹围困,?奈在其胁迫,三?合?打开墓室,找到真正天棺。在争夺天棺宝藏时,霍天豹追随天棺坠落?亡。在墓室崩塌的关键时刻,向东已死的养?突然出现......

  1. ##### MediaInfo ######

  2. General

  3. Complete name : 寻龙之发丘天棺.The.Supreme.[email protected]BBQDDQ.COM.mp4

  4. Format : MPEG-4

  5. Format profile : Base Media

  6. Codec ID : isom (isom/iso2/avc1/mp41)

  7. File size : 1.31 GiB

  8. Duration : 1 h 19 min

  9. Overall bit rate : 2 356 kb/s

  10. Writing application : Lavf58.17.103


  11. Video

  12. ID : 1

  13. Format : AVC

  14. Format/Info : Advanced Video Codec

  15. Format profile : [email protected]

  16. Format settings : CABAC / 4 Ref Frames

  17. Format settings, CABAC : Yes

  18. Format settings, Reference frames : 4 frames

  19. Codec ID : avc1

  20. Codec ID/Info : Advanced Video Coding

  21. Duration : 1 h 19 min

  22. Bit rate : 2 256 kb/s

  23. Width : 1 920 pixels

  24. Height : 1 080 pixels

  25. Display aspect ratio : 16:9

  26. Frame rate mode : Variable

  27. Frame rate : 24.000 FPS

  28. Minimum frame rate : 23.994 FPS

  29. Maximum frame rate : 24.006 FPS

  30. Color space : YUV

  31. Chroma subsampling : 4:2:0

  32. Bit depth : 8 bits

  33. Scan type : Progressive

  34. Bits/(Pixel*Frame) : 0.045

  35. Stream size : 1.26 GiB (96%)

  36. Writing library : ptw-1.0.137 rcm-adapt vs-93 vwk

  37. Color range : Limited

  38. Color primaries : BT.709

  39. Transfer characteristics : BT.709

  40. Matrix coefficients : BT.709

  41. Codec configuration box : avcC


  42. Audio

  43. ID : 2

  44. Format : AAC LC

  45. Format/Info : Advanced Audio Codec Low Complexity

  46. Codec ID : mp4a-40-2

  47. Duration : 1 h 19 min

  48. Bit rate mode : Constant

  49. Bit rate : 93.4 kb/s

  50. Channel(s) : 2 channels

  51. Channel layout : L R

  52. Sampling rate : 48.0 kHz

  53. Frame rate : 46.875 FPS (1024 SPF)

  54. Compression mode : Lossy

  55. Stream size : 53.3 MiB (4%)

  56. Default : Yes

  57. Alternate group : 1




复制代码



文件下载


除非特别注明,本文『寻龙之发丘天棺[国语配音/中文字幕].The.Supreme.Chief.Adventure.To.The.Unknown.2021.1080p.WEB-DL.H264.AAC 1.31GB』来源于互联网机器人自动抓取,非本站原创。 浮游电影网不对本文拥有版权,如有侵犯,请联系邮箱:fuyouu#yandex.com[#换成@]投诉。我们会在15个工作日内删除。 但烦请转载时请标明出处:“本文转载于『浮游电影网』,原文地址:https://www.fuyouu.com/18990.html

评论吧骚年!

发表你的见解   

昵称*

E-mail*(建议输入,以便收到博主回复的提示邮件)

验证码*

您可以使用eMule或eMule Mod(Windows)、aMule(Win、Linux、Mac)等软件下载eD2k链接。。
eMule收藏集(.emulecollection)文件是您选中的所有链接的列表文件。eMule可以直接下载它们。
按住SHIFT键选择可以选中多个选择框。
可用文件名和大小选择器来选择文件。
文件名选择器帮您根据文件名称或后缀来选择文件。不分大小写。
符号使用:
和:空格( )、+
不包含:-
或:|
转义:一对英文引号("");
匹配开头:^
匹配结尾:$
例如:
选中所有名称中包含有“eMule”或“0.49c”字眼,但不包含有“exe”字眼的:emule|0.49c -exe
选中所有名称的开头是“eMule”,结尾是“0.49c”的:^emule 0.49c$
选中所有名称中带有“eMule 0.49c”的(必须是“eMule 0.49c”,中间没有别的字符,不能是“eMule fake 0.49c”),需要转义:"emule 0.49c"
大小选择器帮您根据文件大小选择文件。