当前位置: 首页 >> 欧美电影 >> 艾德·伍德[简繁字幕].Ed.Wood.1994.BluRay.1080p.DTS-HD.MA5.1.x265.10bit 11.32GB >> 正文

艾德·伍德[简繁字幕].Ed.Wood.1994.BluRay.1080p.DTS-HD.MA5.1.x265.10bit 11.32GB

2021年11月26日 08:48:56     电影发布:来源于网络     电影分类:欧美电影     评论(0)    

艾德·伍德[简繁字幕].Ed.Wood.1994.BluRay.1080p.DTS HD.MA5.1.x265.10bit 11.32GB 传记 喜剧片 剧情片 欧美电影  第1张

◎译 名 艾德·伍德 / 艾活传(港) / 艾得伍德 / 爱在好莱坞的日子 / 埃德·伍德

◎片 名 Ed Wood

◎年 代 1994

◎产 地 美国

◎类 别 剧情 / 喜剧 / 传记

◎语 言 英语

◎上映日期 1994-09-23(美国)

◎IMDb链接 https://www.imdb.com/title/tt0109707/

◎豆瓣评分 8.2/10 (24715人评价)

◎豆瓣链接 https://movie.douban.com/subject/1293683/

◎片 长 127分钟

◎导 演 蒂姆·波顿 Tim Burton (id:1019002)

◎编 剧 斯科特·亚历山大 Scott Alexander (id:1018466)

拉里·卡拉斯泽斯基 Larry Karaszewski (id:1041652)

◎演 员 约翰尼·德普 Johnny Depp (id:1054456)

莎拉·杰茜卡·帕克 Sarah Jessica Parker (id:1054389)

比尔·默瑞 Bill Murray (id:1054508)

马丁·兰道 Martin Landau (id:1019057)

帕特丽夏·阿奎特 Patricia Arquette (id:1002694)

杰弗瑞·琼斯 Jeffrey Jones (id:1027832)

丽莎·玛丽 Lisa Marie (id:1123475)

格雷戈里·沃尔科特 Gregory Walcott (id:1165188)

莫里斯·拉马奇 Maurice LaMarche (id:1055202)

茱丽叶·兰道 Juliet Landau (id:1002755)

查尔斯·C·史蒂文森 Charles C. Stevenson Jr. (id:1388512)

比尔·库萨克 Bill Cusack (id:1330433)

艾达·泰 Ada Tai (id:1315097)

文森特·多诺费奥 Vincent D'Onofrio (id:1010546)

Michael Flynn Michael Flynn (id:1283898)

蒂姆·波顿 Tim Burton (id:1019002)

丹尼斯·蒂诺威 Denise Di Novi (id:1282363)

霍华德·肖 Howard Shore (id:1027953)

斯特凡·克萨普斯基 Stefan Czapsky (id:1281663)

Tom Duffield Tom Duffield (id:1282784)

柯琳·阿特伍德 Colleen Atwood (id:1277560)

马特·罗斯 Matt Rose (id:1296041)

Lucia Mace Lucia Mace (id:1290632)

里克·斯特拉顿 Rick Stratton (id:1298538)

约兰达·塔辛 Yolanda Toussieng (id:1299453)

维·尼尔 Ve Neill (id:1293011)

Richard Hoover Richard Hoover (id:1286889)

Paul Boyington Paul Boyington (id:1279126)

◎标 签 传记 / 美国 / 1994 / 黑白 / 黑色幽默 / 喜剧 / 剧情 / 励志

◎简 介

这是一部关于奋斗的个人自传电影。1951年,心怀大志的艾德?伍德(约翰尼?德普 Johnny Depp 饰)终于等来机会上演一出自导自演的电影,但是,这个计划不久就夭折了。

艾德并没有气馁,而是接着又一个一个的找投资商,找演员,甚至连他的女友也被拉进剧组参加演出。每次总是准备工作进行得大半时,电影合同最终还是没有拿到,梦想一次次的破灭,女友也离他而去。

我们的艾德虽然自此住进了医院一阵子,但他还没有放弃自己的追梦之旅:还是到处跑着找投资人,苦苦跪求那些著名演员加入自己的剧组,在电影院里被观众的臭鸡蛋烂番茄打得抱头鼠窜。场面热闹而搞笑……

◎获奖情况 (共8项)

第67届奥斯卡金像奖 (1995)

最佳男配角

└──马丁·兰道 (id:1019057)

最佳化妆

第48届戛纳电影节 (1995)

主竞赛单元 金棕榈奖(提名)

└──蒂姆·波顿 (id:1019002)

第52届金球奖 (1995)

电影类 最佳音乐/喜剧片(提名)

电影类 音乐/喜剧片最佳男主角(提名)

└──约翰尼·德普 (id:1054456)

电影类 最佳男配角

└──马丁·兰道 (id:1019057)

第49届英国电影学院奖 (1996)

电影奖 最佳男配角(提名)

└──马丁·兰道 (id:1019057)

电影奖 最佳化妆/发型(提名)

  1. ##### MediaInfo ######

  2. General

  3. Unique ID : 221000968803027395782494524556167171538 (0xA6433D04DFF4C2B7D5B7EB3C3E654DD2)

  4. Complete name : [email protected]OM.mkv

  5. Format : Matroska

  6. Format version : Version 4

  7. File size : 11.3 GiB

  8. Duration : 2 h 6 min

  9. Overall bit rate mode : Variable

  10. Overall bit rate : 12.8 Mb/s

  11. Encoded date : UTC 2021-11-24 00:49:47

  12. Writing application : mkvmerge v49.0.0 ('Sick Of Losing Soulmates') 64-bit

  13. Writing library : libebml v1.4.0 + libmatroska v1.6.1


  14. Video

  15. ID : 1

  16. Format : HEVC

  17. Format/Info : High Efficiency Video Coding

  18. Format profile : Main [email protected]@High

  19. Codec ID : V_MPEGH/ISO/HEVC

  20. Duration : 2 h 6 min

  21. Bit rate : 8 999 kb/s

  22. Width : 1 920 pixels

  23. Height : 1 040 pixels

  24. Display aspect ratio : 1.85:1

  25. Frame rate mode : Constant

  26. Frame rate : 23.976 (24000/1001/53354) FPS

  27. Color space : YUV

  28. Chroma subsampling : 4:2:0

  29. Bit depth : 10 bits

  30. Bits/(Pixel*Frame) : 0.188

  31. Stream size : 7.96 GiB (70%)

  32. Title : HEVC, [email protected]@High, 24/1.001 fps @ 8999 kbps

  33. Writing library : x265 3.4+14-gd419c7152:[Windows][GCC 10.2.0][64 bit] 10bit

  34. Encoding settings : cpuid=533541111039 / frame-threads=4 / numa-pools=16 / wpp / pmode / pme / no-psnr / no-ssim / log-level=2 / input-csp=1 / input-res=1920x1040 / interlace=0 / total-frames=182064 / level-idc=51 / high-tier=1 / uhd-bd=0 / ref=5 / no-allow-non-conformance / no-repeat-headers / annexb / no-aud / no-hrd / info / hash=0 / no-temporal-layers / open-gop / min-keyint=24 / keyint=240 / gop-lookahead=0 / bframes=6 / b-adapt=2 / b-pyramid / bframe-bias=0 / rc-lookahead=40 / lookahead-slices=0 / NTMzNTQ=uuDQuD2mJt9fsCf / scenecut=40 / hist-scenecut=0 / radl=0 / no-splice / no-intra-refresh / ctu=32 / min-cu-size=8 / no-rect / no-amp / max-tu-size=32 / tu-inter-depth=3 / tu-intra-depth=3 / limit-tu=4 / rdoq-level=2 / dynamic-rd=0.00 / no-ssim-rd / signhide / no-tskip / nr-intra=0 / nr-inter=0 / no-constrained-intra / no-strong-intra-smoothing / max-merge=4 / limit-refs=1 / limit-modes / me=3 / subme=4 / merange=25 / temporal-mvp / no-frame-dup / no-hme / weightp / weightb / no-analyze-src-pics / deblock=-3:-3 / no-sao / no-sao-non-deblock / rd=6 / selective-sao=0 / no-early-skip / rskip / no-fast-intra / no-tskip-fast / no-cu-lossless / b-intra / no-splitrd-skip / rdpenalty=0 / psy-rd=2.00 / psy-rdoq=1.00 / no-rd-refine / no-lossless / cbqpoffs=0 / crqpoffs=0 / rc=crf / crf=20.0 / qcomp=0.65 / qpstep=4 / stats-write=0 / stats-read=0 / vbv-maxrate=80000 / vbv-bufsize=80000 / vbv-init=0.9 / crf-max=0.0 / crf-min=0.0 / ipratio=1.40 / pbratio=1.30 / aq-mode=2 / aq-strength=0.85 / cutree / zone-count=0 / no-strict-cbr / qg-size=32 / no-rc-grain / qpmax=69 / qpmin=0 / no-const-vbv / sar=1 / overscan=0 / videoformat=5 / range=0 / colorprim=1 / transfer=1 / colormatrix=1 / chromaloc=0 / display-window=0 / cll=0,0 / min-luma=0 / max-luma=1023 / log2-max-poc-lsb=8 / vui-timing-info / vui-hrd-info / slices=1 / no-opt-qp-pps / no-opt-ref-list-length-pps / no-multi-pass-opt-rps / scenecut-bias=0.05 / hist-threshold=0.03 / no-opt-cu-delta-qp / no-aq-motion / no-hdr10 / no-hdr10-opt / no-dhdr10-opt / no-idr-recovery-sei / analysis-reuse-level=0 / analysis-save-reuse-level=0 / analysis-load-reuse-level=0 / scale-factor=0 / refine-intra=0 / refine-inter=0 / refine-mv=1 / refine-ctu-distortion=0 / no-limit-sao / ctu-info=0 / no-lowpass-dct / refine-analysis-type=0 / copy-pic=1 / max-ausize-factor=1.0 / no-dynamic-refine / no-single-sei / no-hevc-aq / no-svt / no-field / qp-adaptation-range=1.00 / no-scenecut-aware-qpconformance-window-offsets / right=0 / bottom=0 / NTMzNTQ= / decoder-max-rate=0

  35. Language : English

  36. Default : Yes

  37. Forced : No

  38. Color range : Limited

  39. Color primaries : BT.709

  40. Transfer characteristics : BT.709

  41. Matrix coefficients : BT.709


  42. Audio

  43. ID : 2

  44. Format : DTS XLL

  45. Format/Info : Digital Theater Systems

  46. Commercial name : DTS-HD Master Audio

  47. Codec ID : A_DTS

  48. Duration : 2 h 6 min

  49. Bit rate mode : Variable

  50. Bit rate : 3 700 kb/s

  51. Channel(s) : 6 channels

  52. Channel layout : C L R Ls Rs LFE

  53. Sampling rate : 48.0 kHz

  54. Frame rate : 93.750 FPS (512 SPF)

  55. Bit depth : 24 bits

  56. Compression mode : Lossless

  57. Stream size : 3.27 GiB (29%)

  58. Title : English DTS-HD Master Audio 5.1 @ 3700 kbps

  59. Language : English

  60. Default : Yes

  61. Forced : No


  62. Text #1

  63. ID : 3

  64. Format : PGS

  65. Codec ID : S_HDMV/PGS

  66. Codec ID/Info : Picture based subtitle format used on BDs/HD-DVDs

  67. Duration : 2 h 1 min

  68. Bit rate : 44.0 kb/s

  69. Count of elements : 3592

  70. Stream size : 38.4 MiB (0%)

  71. Title : Eng/SUP

  72. Language : English

  73. Default : No

  74. Forced : No


  75. Text #2

  76. ID : 4

  77. Format : PGS

  78. Codec ID : S_HDMV/PGS

  79. Codec ID/Info : Picture based subtitle format used on BDs/HD-DVDs

  80. Duration : 2 h 2 min

  81. Bit rate : 32.5 kb/s

  82. Count of elements : 3608

  83. Stream size : 28.4 MiB (0%)

  84. Title : Chs/SUP 简体

  85. Language : Chinese

  86. Default : Yes

  87. Forced : No


  88. Text #3

  89. ID : 5

  90. Format : PGS

  91. Codec ID : S_HDMV/PGS

  92. Codec ID/Info : Picture based subtitle format used on BDs/HD-DVDs

  93. Duration : 2 h 2 min

  94. Bit rate : 33.2 kb/s

  95. Count of elements : 3608

  96. Stream size : 29.0 MiB (0%)

  97. Title : Cht/SUP 繁体

  98. Language : Chinese

  99. Default : No

  100. Forced : No




复制代码



文件下载


除非特别注明,本文『艾德·伍德[简繁字幕].Ed.Wood.1994.BluRay.1080p.DTS-HD.MA5.1.x265.10bit 11.32GB』来源于互联网机器人自动抓取,非本站原创。 浮游电影网不对本文拥有版权,如有侵犯,请联系邮箱:fuyouu#yandex.com[#换成@]投诉。我们会在15个工作日内删除。 但烦请转载时请标明出处:“本文转载于『浮游电影网』,原文地址:https://www.fuyouu.com/18987.html

评论吧骚年!

发表你的见解   

昵称*

E-mail*(建议输入,以便收到博主回复的提示邮件)

验证码*

您可以使用eMule或eMule Mod(Windows)、aMule(Win、Linux、Mac)等软件下载eD2k链接。。
eMule收藏集(.emulecollection)文件是您选中的所有链接的列表文件。eMule可以直接下载它们。
按住SHIFT键选择可以选中多个选择框。
可用文件名和大小选择器来选择文件。
文件名选择器帮您根据文件名称或后缀来选择文件。不分大小写。
符号使用:
和:空格( )、+
不包含:-
或:|
转义:一对英文引号("");
匹配开头:^
匹配结尾:$
例如:
选中所有名称中包含有“eMule”或“0.49c”字眼,但不包含有“exe”字眼的:emule|0.49c -exe
选中所有名称的开头是“eMule”,结尾是“0.49c”的:^emule 0.49c$
选中所有名称中带有“eMule 0.49c”的(必须是“eMule 0.49c”,中间没有别的字符,不能是“eMule fake 0.49c”),需要转义:"emule 0.49c"
大小选择器帮您根据文件大小选择文件。