当前位置: 首页 >> 港台电影 >> 代客泊车[国粤语音轨/简繁字幕].Parking.Service.1986.BluRay.1080p.2Audio.DTS-HD.MA.2.0.x265.10bit 9.04GB >> 正文

代客泊车[国粤语音轨/简繁字幕].Parking.Service.1986.BluRay.1080p.2Audio.DTS-HD.MA.2.0.x265.10bit 9.04GB

2021年11月26日 08:43:20     电影发布:来源于网络     电影分类:港台电影     评论(0)    

代客泊车[国粤语音轨/简繁字幕].Parking.Service.1986.BluRay.1080p.2Audio.DTS HD.MA.2.0.x265.10bit 9.04GB 喜剧片 港台电影  第1张

◎译 名 代客泊车 / Parking Service

◎片 名 代客泊車

◎年 代 1986

◎产 地 中国香港

◎类 别 喜剧

◎语 言 粤语

◎上映日期 1986-01-10(中国香港)

◎IMDb链接 https://www.imdb.com/title/tt0090897/

◎豆瓣评分 6.1/10 (347人评价)

◎豆瓣链接 https://movie.douban.com/subject/1918021/

◎片 长 87分钟

◎导 演 麦灵芝 Angela Mak (id:1407439)

◎编 剧 文隽 Manfred Wong (id:1274823)

◎演 员 李修贤 Danny Lee (id:1025452)

胡因梦 Terry Hu (id:1047380)

黄柏文 Parkman Wong (id:1322042)

杨群 Peter Yang Kwan (id:1317338)

谷峰 Feng Ku (id:1054239)

关朝聪 Keith Kwan (id:1335189)

胡美仪 Amy Hu (id:1329606)

陈家齐 Kitty Chan Ga-Chaai (id:1329639)

翁世杰 Sai-Kit Yung (id:1319534)

龙天生 Tin Sang Lung (id:1365223)

成奎安 Fui-On Shing (id:1141665)

黎少芳 Siu-Fong Lai (id:1361829)

梁洁芳 Kit Fong Leung (id:1407445)

徐锡然 Sek-Yin Tsui (id:1407446)

黎应就 Guy Lai (id:1345936)

◎标 签 香港 / 李修贤 / 香港电影 / 胡茵梦 / 1986 / 胡因梦 / 黄柏文 / 麦灵芝

◎简 介

士丹尼是一个精灵开朗的青年,因厌倦乡间养猪生涯,毅然前往尖东一酒家任代客泊车之职,并与同事阿文结成好友。士丹尼穿针引线使阿文结识到其暗恋已久的艳女郎史提拉,一改其灰暗人生观。另一方面,士丹尼鼓励同事勤奋工作,以礼貌笑容博取更多小账,但却因部份害群之马盗窃客车内之贵重物品及换取汽车零件,引玫车主不断投诉,士丹尼与阿文遂施计将不良份子绳之于法,更无意中揭破杨大爷利用汽车贩运伪钞之阴谋。

  1. ##### MediaInfo ######

  2. General

  3. Unique ID : 264485061198666361459679469219293814210 (0xC6F9F84CB6BDDA56EE2A1A5F45BDDDC2)

  4. Complete name : Parking.[email protected]BBQDDQ.COM.mkv

  5. Format : Matroska

  6. Format version : Version 4

  7. File size : 9.04 GiB

  8. Duration : 1 h 31 min

  9. Overall bit rate mode : Variable

  10. Overall bit rate : 14.2 Mb/s

  11. Encoded date : UTC 2021-11-23 08:52:42

  12. Writing application : mkvmerge v49.0.0 ('Sick Of Losing Soulmates') 64-bit

  13. Writing library : libebml v1.4.0 + libmatroska v1.6.1


  14. Video

  15. ID : 1

  16. Format : HEVC

  17. Format/Info : High Efficiency Video Coding

  18. Format profile : Main [email protected]@High

  19. Codec ID : V_MPEGH/ISO/HEVC

  20. Duration : 1 h 31 min

  21. Bit rate : 12.5 Mb/s

  22. Width : 1 920 pixels

  23. Height : 1 080 pixels

  24. Display aspect ratio : 16:9

  25. Frame rate mode : Constant

  26. Frame rate : 24.000 FPS

  27. Color space : YUV

  28. Chroma subsampling : 4:2:0

  29. Bit depth : 10 bits

  30. Bits/(Pixel*Frame) : 0.250

  31. Stream size : 7.94 GiB (88%)

  32. Title : HEVC, [email protected]@High, 24 fps @ 12465 kbps

  33. Writing library : x265 3.4+14-gd419c7152:[Windows][GCC 10.2.0][64 bit] 10bit

  34. Encoding settings : cpuid=533541111039 / frame-threads=4 / numa-pools=16 / wpp / pmode / pme / no-psnr / no-ssim / log-level=2 / input-csp=1 / input-res=1920x1080 / interlace=0 / total-frames=131340 / level-idc=51 / high-tier=1 / uhd-bd=0 / ref=5 / no-allow-non-conformance / no-repeat-headers / annexb / no-aud / no-hrd / info / hash=0 / no-temporal-layers / open-gop / min-keyint=24 / keyint=240 / gop-lookahead=0 / bframes=6 / b-adapt=2 / b-pyramid / bframe-bias=0 / rc-lookahead=40 / lookahead-slices=0 / NTMzNTQ=uuDQuD2mJt9fsCf / scenecut=40 / hist-scenecut=0 / radl=0 / no-splice / no-intra-refresh / ctu=32 / min-cu-size=8 / no-rect / no-amp / max-tu-size=32 / tu-inter-depth=3 / tu-intra-depth=3 / limit-tu=4 / rdoq-level=2 / dynamic-rd=0.00 / no-ssim-rd / signhide / no-tskip / nr-intra=0 / nr-inter=0 / no-constrained-intra / no-strong-intra-smoothing / max-merge=4 / limit-refs=1 / limit-modes / me=3 / subme=4 / merange=25 / temporal-mvp / no-frame-dup / no-hme / weightp / weightb / no-analyze-src-pics / deblock=-3:-3 / no-sao / no-sao-non-deblock / rd=6 / selective-sao=0 / no-early-skip / rskip / no-fast-intra / no-tskip-fast / no-cu-lossless / b-intra / no-splitrd-skip / rdpenalty=0 / psy-rd=2.00 / psy-rdoq=1.00 / no-rd-refine / no-lossless / cbqpoffs=0 / crqpoffs=0 / rc=crf / crf=19.5 / qcomp=0.65 / qpstep=4 / stats-write=0 / stats-read=0 / vbv-maxrate=80000 / vbv-bufsize=80000 / vbv-init=0.9 / crf-max=0.0 / crf-min=0.0 / ipratio=1.40 / pbratio=1.30 / aq-mode=2 / aq-strength=0.85 / cutree / zone-count=0 / no-strict-cbr / qg-size=32 / no-rc-grain / qpmax=69 / qpmin=0 / no-const-vbv / sar=1 / overscan=0 / videoformat=5 / range=0 / colorprim=1 / transfer=1 / colormatrix=1 / chromaloc=0 / display-window=0 / cll=0,0 / min-luma=0 / max-luma=1023 / log2-max-poc-lsb=8 / vui-timing-info / vui-hrd-info / slices=1 / no-opt-qp-pps / no-opt-ref-list-length-pps / no-multi-pass-opt-rps / scenecut-bias=0.05 / hist-threshold=0.03 / no-opt-cu-delta-qp / no-aq-motion / no-hdr10 / no-hdr10-opt / no-dhdr10-opt / no-idr-recovery-sei / analysis-reuse-level=0 / analysis-save-reuse-level=0 / analysis-load-reuse-level=0 / scale-factor=0 / refine-intra=0 / refine-inter=0 / refine-mv=1 / refine-ctu-distortion=0 / no-limit-sao / ctu-info=0 / no-lowpass-dct / refine-analysis-type=0 / copy-pic=1 / max-ausize-factor=1.0 / no-dynamic-refine / no-single-sei / no-hevc-aq / no-svt / no-field / qp-adaptation-range=1.00 / no-scenecut-aware-qpconformance-window-offsets / right=0 / bottom=0 / NTMzNTQ= / decoder-max-rate=0

  35. Language : English

  36. Default : Yes

  37. Forced : No

  38. Color range : Limited

  39. Color primaries : BT.709

  40. Transfer characteristics : BT.709

  41. Matrix coefficients : BT.709


  42. Audio #1

  43. ID : 2

  44. Format : DTS XLL

  45. Format/Info : Digital Theater Systems

  46. Commercial name : DTS-HD Master Audio

  47. Codec ID : A_DTS

  48. Duration : 1 h 31 min

  49. Bit rate mode : Variable

  50. Bit rate : 798 kb/s

  51. Channel(s) : 2 channels

  52. Channel layout : L R

  53. Sampling rate : 48.0 kHz

  54. Frame rate : 93.750 FPS (512 SPF)

  55. Bit depth : 16 bits

  56. Compression mode : Lossless

  57. Stream size : 520 MiB (6%)

  58. Title : Cantonese DTS-HD Master Audio 2.0 @ 799 kbps

  59. Language : Chinese

  60. Default : Yes

  61. Forced : No


  62. Audio #2

  63. ID : 3

  64. Format : DTS XLL

  65. Format/Info : Digital Theater Systems

  66. Commercial name : DTS-HD Master Audio

  67. Codec ID : A_DTS

  68. Duration : 1 h 31 min

  69. Bit rate mode : Variable

  70. Bit rate : 829 kb/s

  71. Channel(s) : 2 channels

  72. Channel layout : L R

  73. Sampling rate : 48.0 kHz

  74. Frame rate : 93.750 FPS (512 SPF)

  75. Bit depth : 16 bits

  76. Compression mode : Lossless

  77. Stream size : 540 MiB (6%)

  78. Title : Mandarin DTS-HD Master Audio 2.0 @ 830 kbps

  79. Language : Chinese

  80. Default : No

  81. Forced : No


  82. Text #1

  83. ID : 4

  84. Format : PGS

  85. Codec ID : S_HDMV/PGS

  86. Codec ID/Info : Picture based subtitle format used on BDs/HD-DVDs

  87. Duration : 1 h 27 min

  88. Bit rate : 35.9 kb/s

  89. Count of elements : 2040

  90. Stream size : 22.5 MiB (0%)

  91. Title : Cht/SUP 原盘繁体

  92. Language : Chinese

  93. Default : No

  94. Forced : No


  95. Text #2

  96. ID : 5

  97. Format : PGS

  98. Codec ID : S_HDMV/PGS

  99. Codec ID/Info : Picture based subtitle format used on BDs/HD-DVDs

  100. Duration : 1 h 27 min

  101. Bit rate : 33.5 kb/s

  102. Count of elements : 2040

  103. Stream size : 21.0 MiB (0%)

  104. Title : Chs/SUP 原盘简体

  105. Language : Chinese

  106. Default : Yes

  107. Forced : No


  108. Text #3

  109. ID : 6

  110. Format : PGS

  111. Codec ID : S_HDMV/PGS

  112. Codec ID/Info : Picture based subtitle format used on BDs/HD-DVDs

  113. Duration : 1 h 27 min

  114. Bit rate : 32.6 kb/s

  115. Count of elements : 1974

  116. Stream size : 20.4 MiB (0%)

  117. Title : Eng/SUP

  118. Language : English

  119. Default : No

  120. Forced : No


  121. Menu

  122. 00:00:00.000 : en:第 01 章

  123. 00:06:33.167 : en:第 02 章

  124. 00:12:30.292 : en:第 03 章

  125. 00:19:08.083 : en:第 04 章

  126. 00:27:06.083 : en:第 05 章

  127. 00:32:36.208 : en:第 06 章

  128. 00:40:19.542 : en:第 07 章

  129. 00:47:41.167 : en:第 08 章

  130. 00:56:24.792 : en:第 09 章

  131. 01:05:29.958 : en:第 10 章

  132. 01:13:56.250 : en:第 11 章

  133. 01:22:19.583 : en:第 12 章




复制代码



文件下载


除非特别注明,本文『代客泊车[国粤语音轨/简繁字幕].Parking.Service.1986.BluRay.1080p.2Audio.DTS-HD.MA.2.0.x265.10bit 9.04GB』来源于互联网机器人自动抓取,非本站原创。 浮游电影网不对本文拥有版权,如有侵犯,请联系邮箱:fuyouu#yandex.com[#换成@]投诉。我们会在15个工作日内删除。 但烦请转载时请标明出处:“本文转载于『浮游电影网』,原文地址:https://www.fuyouu.com/18986.html

评论吧骚年!

发表你的见解   

昵称*

E-mail*(建议输入,以便收到博主回复的提示邮件)

验证码*

您可以使用eMule或eMule Mod(Windows)、aMule(Win、Linux、Mac)等软件下载eD2k链接。。
eMule收藏集(.emulecollection)文件是您选中的所有链接的列表文件。eMule可以直接下载它们。
按住SHIFT键选择可以选中多个选择框。
可用文件名和大小选择器来选择文件。
文件名选择器帮您根据文件名称或后缀来选择文件。不分大小写。
符号使用:
和:空格( )、+
不包含:-
或:|
转义:一对英文引号("");
匹配开头:^
匹配结尾:$
例如:
选中所有名称中包含有“eMule”或“0.49c”字眼,但不包含有“exe”字眼的:emule|0.49c -exe
选中所有名称的开头是“eMule”,结尾是“0.49c”的:^emule 0.49c$
选中所有名称中带有“eMule 0.49c”的(必须是“eMule 0.49c”,中间没有别的字符,不能是“eMule fake 0.49c”),需要转义:"emule 0.49c"
大小选择器帮您根据文件大小选择文件。