当前位置: 首页 >> 港台电影 >> 冬去冬又来[国语配音/中文字幕].Winter.After.Winter.2019.WEB-DL.4K.H265.DDP.2.0.&.AAC.5.1-bt9527.cc 4.53GB >> 正文

冬去冬又来[国语配音/中文字幕].Winter.After.Winter.2019.WEB-DL.4K.H265.DDP.2.0.&.AAC.5.1-bt9527.cc 4.53GB

2021年11月23日 20:08:17     电影发布:来源于网络     电影分类:港台电影     评论(0)    

冬去冬又来[国语配音/中文字幕].Winter.After.Winter.2019.WEB DL.4K.H265.DDP.2.0.&.AAC.5.1 bt9527.cc 4.53GB 历史 剧情片 港台电影  第1张

◎译 名 冬去冬又来 / 活下去 / Winter After Winter

◎年 代 2019

◎产 地 中国大陆

◎类 别 剧情 / 历史

◎语 言 汉语普通话

◎上映日期 2020-11-14(中国大陆) / 2019-01-25(鹿特丹国际电影节)

◎IMDb链接 https://www.imdb.com/title/tt9690420/

◎豆瓣评分 6.1/10 (1102人评价)

◎豆瓣链接 https://movie.douban.com/subject/30167152/

◎片 长 110分钟

◎导 演 邢健 Jian Xing (id:1356583)

◎演 员 颜丙燕 Bingyan Yan (id:1040392)

刘頔 Di Liu (id:1343944)

张志勇 Zhiyong Zhang (id:1280462)

袁利国 Liguo Yuan (id:1407565)

日比野玲 Akira Hibino (id:1172423)

李彦 Yan Li (id:1359548)

◎标 签 颜丙燕 / 剧情 / 历史 / 邢健 / 2019 / 中国电影 / 中国大陆 / 中国

◎简 介

电影故事以中日战争末期的东北农村为背景,讲述了战争时期,乾四爷一家的命运轨迹。

◎获奖情况 (共1项)

第43届香港国际电影节 (2019)

新秀电影竞赛 火鸟电影大奖(华语)(提名)

└──邢健 (id:1356583)

  1. ##### MediaInfo ######

  2. General

  3. Unique ID : 193113121310590105985523309995710560546 (0x91483BFAFE791100A0528EAEBF213922)

  4. Complete name : Winter After Winter 2019 WEB-DL 4K H265 DDP 2.0 & AAC [email protected]

  5. Format : Matroska

  6. Format version : Version 4

  7. File size : 4.52 GiB

  8. Duration : 1 h 49 min

  9. Overall bit rate : 5 930 kb/s

  10. Encoded date : UTC 2021-11-22 17:33:27

  11. Writing application : mkvmerge v62.0.0 ('Apollo') 64-bit

  12. Writing library : libebml v1.4.2 + libmatroska v1.6.4


  13. Video

  14. ID : 1

  15. Format : HEVC

  16. Format/Info : High Efficiency Video Coding

  17. Format profile : [email protected]@Main

  18. Codec ID : V_MPEGH/ISO/HEVC

  19. Duration : 1 h 49 min

  20. Bit rate : 5 541 kb/s

  21. Width : 3 840 pixels

  22. Height : 1 626 pixels

  23. Display aspect ratio : 2.35:1

  24. Frame rate mode : Constant

  25. Frame rate : 25.000 FPS

  26. Color space : YUV

  27. Chroma subsampling : 4:2:0

  28. Bit depth : 8 bits

  29. Bits/(Pixel*Frame) : 0.035

  30. Stream size : 4.23 GiB (93%)

  31. Writing library : HW265_Code

  32. Default : Yes

  33. Forced : No

  34. Color range : Limited

  35. Color primaries : BT.709

  36. Transfer characteristics : BT.709

  37. Matrix coefficients : BT.709


  38. Audio #1

  39. ID : 2

  40. Format : E-AC-3

  41. Format/Info : Enhanced AC-3

  42. Commercial name : Dolby Digital Plus

  43. Codec ID : A_EAC3

  44. Duration : 1 h 49 min

  45. Bit rate mode : Constant

  46. Bit rate : 256 kb/s

  47. Channel(s) : 2 channels

  48. Channel layout : L R

  49. Sampling rate : 48.0 kHz

  50. Frame rate : 31.250 FPS (1536 SPF)

  51. Compression mode : Lossy

  52. Stream size : 200 MiB (4%)

  53. Language : Chinese

  54. Service kind : Complete Main

  55. Default : Yes

  56. Forced : No


  57. Audio #2

  58. ID : 3

  59. Format : AAC LC SBR

  60. Format/Info : Advanced Audio Codec Low Complexity with Spectral Band Replication

  61. Commercial name : HE-AAC

  62. Format settings : NBC

  63. Codec ID : A_AAC-5

  64. Duration : 1 h 49 min

  65. Bit rate : 132 kb/s

  66. Channel(s) : 6 channels

  67. Channel layout : C L R Ls Rs LFE

  68. Sampling rate : 48.0 kHz

  69. Frame rate : 23.438 FPS (2048 SPF)

  70. Compression mode : Lossy

  71. Stream size : 102 MiB (2%)

  72. Language : Chinese

  73. Default : No

  74. Forced : No




复制代码



文件下载


除非特别注明,本文『冬去冬又来[国语配音/中文字幕].Winter.After.Winter.2019.WEB-DL.4K.H265.DDP.2.0.&.AAC.5.1-bt9527.cc 4.53GB』来源于互联网机器人自动抓取,非本站原创。 浮游电影网不对本文拥有版权,如有侵犯,请联系邮箱:fuyouu#yandex.com[#换成@]投诉。我们会在15个工作日内删除。 但烦请转载时请标明出处:“本文转载于『浮游电影网』,原文地址:https://www.fuyouu.com/18973.html

评论吧骚年!

发表你的见解   

昵称*

E-mail*(建议输入,以便收到博主回复的提示邮件)

验证码*

您可以使用eMule或eMule Mod(Windows)、aMule(Win、Linux、Mac)等软件下载eD2k链接。。
eMule收藏集(.emulecollection)文件是您选中的所有链接的列表文件。eMule可以直接下载它们。
按住SHIFT键选择可以选中多个选择框。
可用文件名和大小选择器来选择文件。
文件名选择器帮您根据文件名称或后缀来选择文件。不分大小写。
符号使用:
和:空格( )、+
不包含:-
或:|
转义:一对英文引号("");
匹配开头:^
匹配结尾:$
例如:
选中所有名称中包含有“eMule”或“0.49c”字眼,但不包含有“exe”字眼的:emule|0.49c -exe
选中所有名称的开头是“eMule”,结尾是“0.49c”的:^emule 0.49c$
选中所有名称中带有“eMule 0.49c”的(必须是“eMule 0.49c”,中间没有别的字符,不能是“eMule fake 0.49c”),需要转义:"emule 0.49c"
大小选择器帮您根据文件大小选择文件。