当前位置: 首页 >> 国产电影 >> 狐缘[国语配音/中文字幕].Fox.Spirit.1986.WEB-DL.4K.H265.AAC-bt9527.cc 3.11GB >> 正文

狐缘[国语配音/中文字幕].Fox.Spirit.1986.WEB-DL.4K.H265.AAC-bt9527.cc 3.11GB

2021年11月23日 20:03:58     电影发布:来源于网络     电影分类:国产电影     评论(0)    

狐缘[国语配音/中文字幕].Fox.Spirit.1986.WEB DL.4K.H265.AAC bt9527.cc 3.11GB 奇幻片 剧情片 国产电影  第1张

◎译 名 狐缘 / Fox Spirit

◎年 代 1986

◎产 地 中国大陆

◎类 别 剧情 / 奇幻

◎语 言 汉语普通话

◎IMDb链接 https://www.imdb.com/title/tt0356711/

◎豆瓣评分 6.5/10 (175人评价)

◎豆瓣链接 https://movie.douban.com/subject/3131870/

◎片 长 83分钟

◎导 演 孙元勋 Yuanxun Sun (id:1353396)

◎编 剧 方义华 Wenhua Fang (id:1324564)

◎演 员 孔爱萍 Aiping Kong (id:1345989)

卢伟强 Weiqiang Lu (id:1369733)

赵敏杰 Mingjie Zhao (id:1369731)

左翎 Ling Zuo (id:1318361)

朱永涛 Yongtao Zhu (id:1369734)

童自荣 Zirong Tong (id:1318216)

白来兴 Laixing Bai (id:1415954)

郑伟松 Weisong Zheng (id:1442761)

张慕芹 Muqin Zhang (id:1372371)

◎标 签 聊斋 / 中国电影 / 中国 / 古装 / 孔爱萍 / 国产怀旧电影 / 1980s / 大陆

◎简 介

荒郊野岭之外,骑驴外出的读书人冯生巧遇一位貌美如花、身着红裙的女子。当他准备上前搭话时,女子竟凭空消失。冯生不以为意,夜幕降临后投宿古寺,在此遇见自称由千年老狐变化而来的辛叟,进而得知连续两度出现的红衣女子是辛叟的狐女辛十四娘。因私窥闺房,冯生惹恼辛叟,被对方愤怒地赶了出去。后经鬼狐主宰牵线,冯生终于和十四娘结为夫妇,琴瑟合璧。洞房花烛夜,自该是金榜题名时。冯生和家境优渥的楚公子结伴上京赶考,但这个正直清廉的书生三番五次触怒楚公子,进而被对方勾结官府所陷害。

眼看夫君名不保矣,十四娘为救冯生不惜忍辱负重……

  1. ##### MediaInfo ######

  2. General

  3. Complete name : Fox Spirit 1986 WEB-DL 4K H265 [email protected]

  4. Format : MPEG-4

  5. Format profile : Base Media

  6. Codec ID : isom (isom/iso2/mp41)

  7. File size : 3.11 GiB

  8. Duration : 1 h 27 min

  9. Overall bit rate mode : Variable

  10. Overall bit rate : 5 109 kb/s

  11. Writing application : Lavf58.30.100


  12. Video

  13. ID : 1

  14. Format : HEVC

  15. Format/Info : High Efficiency Video Coding

  16. Format profile : [email protected]@Main

  17. Codec ID : hev1

  18. Codec ID/Info : High Efficiency Video Coding

  19. Duration : 1 h 27 min

  20. Bit rate : 4 912 kb/s

  21. Width : 3 840 pixels

  22. Height : 2 160 pixels

  23. Display aspect ratio : 16:9

  24. Frame rate mode : Constant

  25. Frame rate : 24.000 FPS

  26. Color space : YUV

  27. Chroma subsampling : 4:2:0

  28. Bit depth : 8 bits

  29. Bits/(Pixel*Frame) : 0.025

  30. Stream size : 2.99 GiB (96%)

  31. Codec configuration box : hvcC


  32. Audio

  33. ID : 2

  34. Format : AAC LC

  35. Format/Info : Advanced Audio Codec Low Complexity

  36. Codec ID : mp4a-40-2

  37. Duration : 1 h 27 min

  38. Bit rate mode : Variable

  39. Bit rate : 192 kb/s

  40. Channel(s) : 2 channels

  41. Channel layout : L R

  42. Sampling rate : 44.1 kHz

  43. Frame rate : 43.066 FPS (1024 SPF)

  44. Compression mode : Lossy

  45. Stream size : 119 MiB (4%)

  46. Default : Yes

  47. Alternate group : 1




复制代码



文件下载


除非特别注明,本文『狐缘[国语配音/中文字幕].Fox.Spirit.1986.WEB-DL.4K.H265.AAC-bt9527.cc 3.11GB』来源于互联网机器人自动抓取,非本站原创。 浮游电影网不对本文拥有版权,如有侵犯,请联系邮箱:fuyouu#yandex.com[#换成@]投诉。我们会在15个工作日内删除。 但烦请转载时请标明出处:“本文转载于『浮游电影网』,原文地址:https://www.fuyouu.com/18972.html

评论吧骚年!

发表你的见解   

昵称*

E-mail*(建议输入,以便收到博主回复的提示邮件)

验证码*

您可以使用eMule或eMule Mod(Windows)、aMule(Win、Linux、Mac)等软件下载eD2k链接。。
eMule收藏集(.emulecollection)文件是您选中的所有链接的列表文件。eMule可以直接下载它们。
按住SHIFT键选择可以选中多个选择框。
可用文件名和大小选择器来选择文件。
文件名选择器帮您根据文件名称或后缀来选择文件。不分大小写。
符号使用:
和:空格( )、+
不包含:-
或:|
转义:一对英文引号("");
匹配开头:^
匹配结尾:$
例如:
选中所有名称中包含有“eMule”或“0.49c”字眼,但不包含有“exe”字眼的:emule|0.49c -exe
选中所有名称的开头是“eMule”,结尾是“0.49c”的:^emule 0.49c$
选中所有名称中带有“eMule 0.49c”的(必须是“eMule 0.49c”,中间没有别的字符,不能是“eMule fake 0.49c”),需要转义:"emule 0.49c"
大小选择器帮您根据文件大小选择文件。