当前位置: 首页 >> 国产电影 >> 满城尽带黄金甲[国语配音/中文字幕].Curse.of.the.Golden.Flower.2006.1080p.BluRay.DTS.x265-10bit-bt9527.cc 9.20GB >> 正文

满城尽带黄金甲[国语配音/中文字幕].Curse.of.the.Golden.Flower.2006.1080p.BluRay.DTS.x265-10bit-bt9527.cc 9.20GB

2021年11月23日 20:02:21     电影发布:来源于网络     电影分类:国产电影     评论(0)    

满城尽带黄金甲[国语配音/中文字幕].Curse.of.the.Golden.Flower.2006.1080p.BluRay.DTS.x265 10bit bt9527.cc 9.20GB 古装片 爱情片 动作片 剧情片 国产电影  第1张

◎译 名 满城尽带黄金甲 / Curse of the Golden Flower

◎年 代 2006

◎产 地 中国大陆 / 中国香港

◎类 别 剧情 / 动作 / 爱情 / 古装

◎语 言 汉语普通话

◎上映日期 2006-12-14(中国大陆) / 2006-12-21(中国香港)

◎IMDb链接 https://www.imdb.com/title/tt0473444/

◎豆瓣评分 5.8/10 (221942人评价)

◎豆瓣链接 https://movie.douban.com/subject/1499008/

◎片 长 114分钟

◎导 演 张艺谋 Yimou Zhang (id:1054398)

◎编 剧 张艺谋 Yimou Zhang (id:1054398)

吴楠 Nan Wu (id:1322986)

卞智洪 Zhihong Bian (id:1350427)

曹禺 Yu Cao (id:1280026)

◎演 员 周润发 Yun-Fat Chow (id:1044899)

巩俐 Li Gong (id:1035641)

周杰伦 Jay Chou (id:1048000)

刘烨 Ye Liu (id:1000572)

陈瑾 Jin Chen (id:1309215)

倪大红 Dahong Ni (id:1274306)

李曼 Man Li (id:1018820)

秦俊杰 Junjie Qin (id:1316921)

郭常辉 Changhui Guo (id:1326226)

李鸣 Ming Li (id:1336632)

张伸 Shen Zhang (id:1327235)

封柏 Bai Feng (id:1364294)

马天宇 Ray Ma (id:1312820)

于卓 Zhuo Yu (id:1320886)

赵梦恬 Mengtian Zhao (id:1320673)

杜莹 Du Ying (id:1436252)

张震燕 Zhenyan Zhang (id:1385114)

江志强 William Kong (id:1288870)

张艺谋 Yimou Zhang (id:1054398)

张伟平 Weiping Zhang (id:1301698)

梅林茂 Shigeru Umebayashi (id:1005471)

白小妍 Xiaoyan Bai (id:1406328)

赵小丁 Xiaoding Zhao (id:1274347)

林辉泰 Raymond Lam (id:1424902)

温德光 De-Guang Wen (id:1340789)

程珑 Long Cheng (id:1308012)

王建国 Jianguo Wang (id:1302449)

赵斌 Bin Zhao (id:1302460)

孙红武 Hongwu Sun (id:1311482)

魏新华 Xinhua Wei (id:1312404)

霍廷霄 Tingxiao Huo (id:1287179)

董承光 Chengguang Dong (id:1312332)

杨占家 Zhanjia Yang (id:1301416)

宗瑉玄 Minxuan Zong (id:1312403)

戴美玲 Jessie Dai (id:1305279)

奚仲文 Chung-Man Hai (id:1275027)

文润铃 Yun-Ling Man (id:1290093)

仇小梅 Siu-Mui Chau (id:1280537)

谭英群 Popeye Ying Kwan Tam (id:1330601)

付璐璐 Lulu Fu (id:1401800)

臧溪川 Xichuan Zang (id:1328672)

傅闱玮 Weiwei Fu (id:1430974)

梁郁 Yu Liang (id:1442414)

刘国楠 Guonan Liu (id:1365631)

涂灏 Hao Tu (id:1311569)

陶经 Jing Tao (id:1298913)

苏珊·詹杜 Suzanne Jandu (id:1287580)

约翰·莱昂蒂 John Leonti (id:1303128)

克里斯汀·王 Christine Wong (id:1304145)

亨里克·霍姆伯格 Henrik Holmberg (id:1305642)

钟智行 Frankie Chung (id:1308985)

梁伟杰 Wai Kit Leung (id:1311572)

梁耀丰 Yiu Fung Leung (id:1330643)

史焯华 Simon Cheuk Wah Sze (id:1330657)

洪毓良 Franco Yuk Leung Hung (id:1330665)

克里斯·威尔逊 Chris Wilson (id:1185167)

安吉拉·巴松 Angela Barson (id:1278010)

马特·福斯特 Matt Foster (id:1242745)

马丁·德雷克 Martyn Drake (id:1223541)

约翰·霍伊·史密斯 John Van Hoey Smith (id:1197799)

斯图尔特·布伦 Stuart Bullen (id:1232403)

丹·阿什顿 Dan Ashton (id:1187304)

加里·马歇尔 Gary Marshall (id:1213505)

程小东 Siu-Tung Ching (id:1280664)

李才 Cai Li (id:1377516)

徐鸥 Ou Xu (id:1397778)

◎标 签 张艺谋 / 周杰伦 / 巩俐 / 满城尽带黄金甲 / 周润发 / 中国 / 中国电影 / 大陆

◎简 介

王(周润发 饰)领兵造反,夺得了王位。他为了更加巩固自己的地位,赶走了前妻,迎娶了梁国的公主、现任王后(巩俐 饰),以得到梁王的支持。王子元祥(刘烨 饰)是前妻留下的孩子,王跟现任王后也生下了元杰(周杰伦 饰)、元成(秦俊杰 饰)。王后却与元祥有着不可告人的乱伦关系,王一直念念不忘自己的前妻,对外声称前妻已死。王后一直野心勃勃,元杰得知父亲逼着母亲吃毒药,就答应了母亲在重阳节的那天发起兵变,腥风血雨的战争也开始了……

◎获奖情况 (共19项)

第79届奥斯卡金像奖 (2007)

最佳服装设计(提名)

└──奚仲文 (id:1275027)

第26届香港电影金像奖 (2007)

最佳电影(提名)

最佳导演(提名)

└──张艺谋 (id:1054398)

最佳男主角(提名)

└──周润发 (id:1044899)

最佳女主角

└──巩俐 (id:1035641)

最佳男配角(提名)

最佳摄影(提名)

└──赵小丁 (id:1274347)

最佳美术指导

└──霍廷霄 (id:1287179)

最佳服装造型设计

└──奚仲文 (id:1275027)

最佳动作设计(提名)

└──程小东 (id:1280664)

最佳原创电影音乐(提名)

└──梅林茂 (id:1005471)

最佳原创电影歌曲

└──周杰伦 (id:1048000)

最佳音响效果(提名)

最佳视觉效果(提名)

第29届大众电影百花奖 (2008)

最佳男配角(提名)

└──周杰伦 (id:1048000)

第1届亚洲电影大奖 (2007)

最佳电影(提名)

最佳女主角(提名)

└──巩俐 (id:1035641)

最佳视觉效果(提名)

第7届华语电影传媒大奖 (2007)

最佳女主角(提名)

└──巩俐 (id:1035641)

  1. ##### MediaInfo ######

  2. General

  3. Unique ID : 35818095362225853404422403681045082897 (0x1AF250721780BDB895A467C836727311)

  4. Complete name : Cu[email protected]BBQDDQ.COM.mkv

  5. Format : Matroska

  6. Format version : Version 4

  7. File size : 9.20 GiB

  8. Duration : 1 h 54 min

  9. Overall bit rate : 11.6 Mb/s

  10. Movie name : Curse of the Golden Flower 2006 1080p BluRay DTS [email protected]

  11. Encoded date : UTC 2021-11-22 04:42:07

  12. Writing application : mkvmerge v38.0.0 ('The Silent Type') 64-bit

  13. Writing library : libebml v1.3.9 + libmatroska v1.5.2


  14. Video

  15. ID : 1

  16. Format : HEVC

  17. Format/Info : High Efficiency Video Coding

  18. Format profile : Main [email protected]@High

  19. Codec ID : V_MPEGH/ISO/HEVC

  20. Duration : 1 h 54 min

  21. Bit rate : 10.0 Mb/s

  22. Width : 1 920 pixels

  23. Height : 816 pixels

  24. Display aspect ratio : 2.35:1

  25. Frame rate mode : Constant

  26. Frame rate : 23.976 (24000/1001/53354) FPS

  27. Color space : YUV

  28. Chroma subsampling : 4:2:0

  29. Bit depth : 10 bits

  30. Bits/(Pixel*Frame) : 0.267

  31. Stream size : 7.99 GiB (87%)

  32. Title : @HDSky

  33. Writing library : x265 - H.265/HEVC codec

  34. Default : Yes

  35. Forced : No


  36. Audio

  37. ID : 2

  38. Format : DTS

  39. Format/Info : Digital Theater Systems

  40. Codec ID : A_DTS

  41. Duration : 1 h 54 min

  42. Bit rate mode : Constant

  43. Bit rate : 1 509 kb/s

  44. Channel(s) : 6 channels

  45. Channel layout : C L R Ls Rs LFE

  46. Sampling rate : 48.0 kHz

  47. Frame rate : 93.750 FPS (512 SPF)

  48. Bit depth : 24 bits

  49. Compression mode : Lossy

  50. Stream size : 1.20 GiB (13%)

  51. Title : Mandarin

  52. Language : Chinese

  53. Default : Yes

  54. Forced : No


  55. Text #1

  56. ID : 3

  57. Format : PGS

  58. Muxing mode : zlib

  59. Codec ID : S_HDMV/PGS

  60. Codec ID/Info : Picture based subtitle format used on BDs/HD-DVDs

  61. Duration : 1 h 44 min

  62. Bit rate : 12.4 kb/s

  63. Count of elements : 1428

  64. Stream size : 9.28 MiB (0%)

  65. Title : ENG

  66. Language : English

  67. Default : Yes

  68. Forced : No


  69. Text #2

  70. ID : 4

  71. Format : PGS

  72. Muxing mode : zlib

  73. Codec ID : S_HDMV/PGS

  74. Codec ID/Info : Picture based subtitle format used on BDs/HD-DVDs

  75. Duration : 1 h 44 min

  76. Bit rate : 8 974 b/s

  77. Count of elements : 1630

  78. Stream size : 6.73 MiB (0%)

  79. Title : CHS

  80. Language : Chinese

  81. Default : No

  82. Forced : No


  83. Text #3

  84. ID : 5

  85. Format : PGS

  86. Muxing mode : zlib

  87. Codec ID : S_HDMV/PGS

  88. Codec ID/Info : Picture based subtitle format used on BDs/HD-DVDs

  89. Duration : 1 h 44 min

  90. Bit rate : 9 310 b/s

  91. Count of elements : 1630

  92. Stream size : 6.98 MiB (0%)

  93. Title : CHT

  94. Language : Chinese

  95. Default : No

  96. Forced : No


  97. Menu

  98. 00:00:00.000 : en:Chapter 01

  99. 00:10:51.150 : en:Chapter 02

  100. 00:19:31.087 : en:Chapter 03

  101. 00:32:01.920 : en:Chapter 04

  102. 00:44:23.828 : en:Chapter 05

  103. 00:55:16.188 : en:Chapter 06

  104. 01:05:15.703 : en:Chapter 07

  105. 01:13:44.837 : en:Chapter 08

  106. 01:27:42.382 : en:Chapter 09

  107. 01:34:28.246 : en:Chapter 10

  108. 01:43:40.256 : en:Chapter 11

  109. 01:48:48.731 : en:Chapter 12




复制代码



文件下载


除非特别注明,本文『满城尽带黄金甲[国语配音/中文字幕].Curse.of.the.Golden.Flower.2006.1080p.BluRay.DTS.x265-10bit-bt9527.cc 9.20GB』来源于互联网机器人自动抓取,非本站原创。 浮游电影网不对本文拥有版权,如有侵犯,请联系邮箱:fuyouu#yandex.com[#换成@]投诉。我们会在15个工作日内删除。 但烦请转载时请标明出处:“本文转载于『浮游电影网』,原文地址:https://www.fuyouu.com/18971.html

评论吧骚年!

发表你的见解   

昵称*

E-mail*(建议输入,以便收到博主回复的提示邮件)

验证码*

您可以使用eMule或eMule Mod(Windows)、aMule(Win、Linux、Mac)等软件下载eD2k链接。。
eMule收藏集(.emulecollection)文件是您选中的所有链接的列表文件。eMule可以直接下载它们。
按住SHIFT键选择可以选中多个选择框。
可用文件名和大小选择器来选择文件。
文件名选择器帮您根据文件名称或后缀来选择文件。不分大小写。
符号使用:
和:空格( )、+
不包含:-
或:|
转义:一对英文引号("");
匹配开头:^
匹配结尾:$
例如:
选中所有名称中包含有“eMule”或“0.49c”字眼,但不包含有“exe”字眼的:emule|0.49c -exe
选中所有名称的开头是“eMule”,结尾是“0.49c”的:^emule 0.49c$
选中所有名称中带有“eMule 0.49c”的(必须是“eMule 0.49c”,中间没有别的字符,不能是“eMule fake 0.49c”),需要转义:"emule 0.49c"
大小选择器帮您根据文件大小选择文件。