当前位置: 首页 >> 海外电影 >> 钛[简繁字幕].Titane.2021.BluRay.1080p.DTS-HD.MA5.1.x265.10bit-bt9527.cc 4.47GB >> 正文

钛[简繁字幕].Titane.2021.BluRay.1080p.DTS-HD.MA5.1.x265.10bit-bt9527.cc 4.47GB

2021年11月23日 09:02:33     电影发布:来源于网络     电影分类:海外电影     评论(0)    

钛[简繁字幕].Titane.2021.BluRay.1080p.DTS HD.MA5.1.x265.10bit bt9527.cc 4.47GB 惊悚片 剧情片 海外电影  第1张

◎译 名 钛

◎片 名 Titane

◎年 代 2021

◎产 地 法国 / 比利时

◎类 别 剧情 / 惊悚

◎语 言 法语

◎上映日期 2021-07-13(戛纳电影节) / 2021-07-14(法国) / 2021-10-19(美国网络)

◎IMDb链接 https://www.imdb.com/title/tt10944760/

◎豆瓣评分 6.5/10 (31216人评价)

◎豆瓣链接 https://movie.douban.com/subject/34820925/

◎片 长 108分钟

◎导 演 朱利亚·迪库诺 Julia Ducournau (id:1358263)

◎编 剧 朱利亚·迪库诺 Julia Ducournau (id:1358263)

◎演 员 阿加莎·罗塞勒 Agathe Rousselle (id:1459618)

文森特·林顿 Vincent Lindon (id:1010741)

加朗斯·马里利埃 Garance Marillier (id:1368368)

贝特朗·波尼洛 Bertrand Bonello (id:1054161)

拉明·西索科 Lamine Cissokho (id:1447233)

弗雷德里克·雅尔丹 Frédéric Jardin (id:1021207)

弗洛伦斯·詹纳斯 Florence Janas (id:1398997)

Diong-Kéba Tacu Diong-Kéba Tacu (id:1411866)

◎标 签 法国 / 惊悚 / 2021 / 戛纳 / 女性 / 恐怖 / 剧情 / 金棕榈

◎简 介

一名年过中年的消防员在多年后意外找到失散多年的儿子,却发现这名“儿子”背后拥有天大秘密,随着如影随形的神秘血腥事件,却也一步步揭晓儿子真正身份。

◎获奖情况 (共2项)

第74届戛纳电影节 (2021)

主竞赛单元 金棕榈奖

└──朱利亚·迪库诺 (id:1358263)

第31届哥谭独立电影奖 (2021)

最佳国际影片(提名)

└──朱利亚·迪库诺 (id:1358263)

  1. ##### MediaInfo ######

  2. General

  3. Unique ID : 127794159201274629516294977259256736707 (0x60244281C0697C6720744224C180EBC3)

  4. Complete name : [email protected]M.mkv

  5. Format : Matroska

  6. Format version : Version 4

  7. File size : 4.47 GiB

  8. Duration : 1 h 47 min

  9. Overall bit rate mode : Variable

  10. Overall bit rate : 5 927 kb/s

  11. Encoded date : UTC 2021-11-22 03:24:31

  12. Writing application : mkvmerge v49.0.0 ('Sick Of Losing Soulmates') 64-bit

  13. Writing library : libebml v1.4.0 + libmatroska v1.6.1


  14. Video

  15. ID : 1

  16. Format : HEVC

  17. Format/Info : High Efficiency Video Coding

  18. Format profile : Main [email protected]@High

  19. Codec ID : V_MPEGH/ISO/HEVC

  20. Duration : 1 h 47 min

  21. Bit rate : 2 505 kb/s

  22. Width : 1 920 pixels

  23. Height : 804 pixels

  24. Display aspect ratio : 2.40:1

  25. Frame rate mode : Constant

  26. Frame rate : 24.000 FPS

  27. Color space : YUV

  28. Chroma subsampling : 4:2:0

  29. Bit depth : 10 bits

  30. Bits/(Pixel*Frame) : 0.068

  31. Stream size : 1.89 GiB (42%)

  32. Title : HEVC, [email protected]@High, 24 fps @ 2434 kbps

  33. Writing library : x265 3.4+14-gd419c7152:[Windows][GCC 10.2.0][64 bit] 10bit

  34. Encoding settings : cpuid=533541111039 / frame-threads=4 / numa-pools=20 / wpp / pmode / pme / no-psnr / no-ssim / log-level=2 / input-csp=1 / input-res=1920x804 / interlace=0 / total-frames=117354 / level-idc=51 / high-tier=1 / uhd-bd=0 / ref=5 / no-allow-non-conformance / no-repeat-headers / annexb / no-aud / no-hrd / info / hash=0 / no-temporal-layers / open-gop / min-keyint=24 / keyint=240 / gop-lookahead=0 / bframes=6 / b-adapt=2 / b-pyramid / bframe-bias=0 / rc-lookahead=40 / lookahead-slices=0 / NTMzNTQ=uuDQuD2mJt9fsCf / scenecut=40 / hist-scenecut=0 / radl=0 / no-splice / no-intra-refresh / ctu=32 / min-cu-size=8 / no-rect / no-amp / max-tu-size=32 / tu-inter-depth=3 / tu-intra-depth=3 / limit-tu=4 / rdoq-level=2 / dynamic-rd=0.00 / no-ssim-rd / signhide / no-tskip / nr-intra=0 / nr-inter=0 / no-constrained-intra / no-strong-intra-smoothing / max-merge=4 / limit-refs=1 / limit-modes / me=3 / subme=4 / merange=25 / temporal-mvp / no-frame-dup / no-hme / weightp / weightb / no-analyze-src-pics / deblock=-3:-3 / no-sao / no-sao-non-deblock / rd=6 / selective-sao=0 / no-early-skip / rskip / no-fast-intra / no-tskip-fast / no-cu-lossless / b-intra / no-splitrd-skip / rdpenalty=0 / psy-rd=2.00 / psy-rdoq=1.00 / no-rd-refine / no-lossless / cbqpoffs=0 / crqpoffs=0 / rc=crf / crf=17.0 / qcomp=0.65 / qpstep=4 / stats-write=0 / stats-read=0 / vbv-maxrate=80000 / vbv-bufsize=80000 / vbv-init=0.9 / crf-max=0.0 / crf-min=0.0 / ipratio=1.40 / pbratio=1.30 / aq-mode=2 / aq-strength=0.85 / cutree / zone-count=0 / no-strict-cbr / qg-size=32 / no-rc-grain / qpmax=69 / qpmin=0 / no-const-vbv / sar=1 / overscan=0 / videoformat=5 / range=0 / colorprim=1 / transfer=1 / colormatrix=1 / chromaloc=0 / display-window=0 / cll=0,0 / min-luma=0 / max-luma=1023 / log2-max-poc-lsb=8 / vui-timing-info / vui-hrd-info / slices=1 / no-opt-qp-pps / no-opt-ref-list-length-pps / no-multi-pass-opt-rps / scenecut-bias=0.05 / hist-threshold=0.03 / no-opt-cu-delta-qp / no-aq-motion / no-hdr10 / no-hdr10-opt / no-dhdr10-opt / no-idr-recovery-sei / analysis-reuse-level=0 / analysis-save-reuse-level=0 / analysis-load-reuse-level=0 / scale-factor=0 / refine-intra=0 / refine-inter=0 / refine-mv=1 / refine-ctu-distortion=0 / no-limit-sao / ctu-info=0 / no-lowpass-dct / refine-analysis-type=0 / copy-pic=1 / max-ausize-factor=1.0 / no-dynamic-refine / no-single-sei / no-hevc-aq / no-svt / no-field / qp-adaptation-range=1.00 / no-scenecut-aware-qpconformance-window-offsets / right=0 / bottom=0 / NTMzNTQ= / decoder-max-rate=0

  35. Language : English

  36. Default : Yes

  37. Forced : No

  38. Color range : Limited

  39. Color primaries : BT.709

  40. Transfer characteristics : BT.709

  41. Matrix coefficients : BT.709


  42. Audio

  43. ID : 2

  44. Format : DTS XLL

  45. Format/Info : Digital Theater Systems

  46. Commercial name : DTS-HD Master Audio

  47. Codec ID : A_DTS

  48. Duration : 1 h 47 min

  49. Bit rate mode : Variable

  50. Bit rate : 3 387 kb/s

  51. Channel(s) : 6 channels

  52. Channel layout : C L R Ls Rs LFE

  53. Sampling rate : 48.0 kHz

  54. Frame rate : 93.750 FPS (512 SPF)

  55. Bit depth : 24 bits

  56. Compression mode : Lossless

  57. Stream size : 2.56 GiB (57%)

  58. Title : French DTS-HD Master Audio 5.1 @ 3387 kbps

  59. Language : French

  60. Default : Yes

  61. Forced : No


  62. Text #1

  63. ID : 3

  64. Format : PGS

  65. Codec ID : S_HDMV/PGS

  66. Codec ID/Info : Picture based subtitle format used on BDs/HD-DVDs

  67. Duration : 1 h 41 min

  68. Bit rate : 14.6 kb/s

  69. Count of elements : 1278

  70. Stream size : 10.6 MiB (0%)

  71. Title : Eng/SUP

  72. Language : English

  73. Default : No

  74. Forced : No


  75. Text #2

  76. ID : 4

  77. Format : PGS

  78. Codec ID : S_HDMV/PGS

  79. Codec ID/Info : Picture based subtitle format used on BDs/HD-DVDs

  80. Duration : 1 h 39 min

  81. Bit rate : 9 133 b/s

  82. Count of elements : 785

  83. Stream size : 6.51 MiB (0%)

  84. Title : Chs/SUP 简体

  85. Language : Chinese

  86. Default : Yes

  87. Forced : No


  88. Text #3

  89. ID : 5

  90. Format : PGS

  91. Codec ID : S_HDMV/PGS

  92. Codec ID/Info : Picture based subtitle format used on BDs/HD-DVDs

  93. Duration : 1 h 39 min

  94. Bit rate : 9 336 b/s

  95. Count of elements : 785

  96. Stream size : 6.66 MiB (0%)

  97. Title : Cht/SUP 繁体

  98. Language : Chinese

  99. Default : No

  100. Forced : No


  101. Menu

  102. 00:00:00.000 : en:第 01 章

  103. 00:09:42.000 : en:第 02 章

  104. 00:16:54.500 : en:第 03 章

  105. 00:28:40.667 : en:第 04 章

  106. 00:36:36.708 : en:第 05 章

  107. 00:46:07.792 : en:第 06 章

  108. 00:55:21.250 : en:第 07 章

  109. 01:03:39.708 : en:第 08 章

  110. 01:12:50.000 : en:第 09 章

  111. 01:22:16.625 : en:第 10 章

  112. 01:32:49.042 : en:第 11 章

  113. 01:42:24.792 : en:第 12 章


文件下载


除非特别注明,本文『钛[简繁字幕].Titane.2021.BluRay.1080p.DTS-HD.MA5.1.x265.10bit-bt9527.cc 4.47GB』来源于互联网机器人自动抓取,非本站原创。 浮游电影网不对本文拥有版权,如有侵犯,请联系邮箱:fuyouu#yandex.com[#换成@]投诉。我们会在15个工作日内删除。 但烦请转载时请标明出处:“本文转载于『浮游电影网』,原文地址:https://www.fuyouu.com/18955.html

评论吧骚年!

发表你的见解   

昵称*

E-mail*(建议输入,以便收到博主回复的提示邮件)

验证码*

您可以使用eMule或eMule Mod(Windows)、aMule(Win、Linux、Mac)等软件下载eD2k链接。。
eMule收藏集(.emulecollection)文件是您选中的所有链接的列表文件。eMule可以直接下载它们。
按住SHIFT键选择可以选中多个选择框。
可用文件名和大小选择器来选择文件。
文件名选择器帮您根据文件名称或后缀来选择文件。不分大小写。
符号使用:
和:空格( )、+
不包含:-
或:|
转义:一对英文引号("");
匹配开头:^
匹配结尾:$
例如:
选中所有名称中包含有“eMule”或“0.49c”字眼,但不包含有“exe”字眼的:emule|0.49c -exe
选中所有名称的开头是“eMule”,结尾是“0.49c”的:^emule 0.49c$
选中所有名称中带有“eMule 0.49c”的(必须是“eMule 0.49c”,中间没有别的字符,不能是“eMule fake 0.49c”),需要转义:"emule 0.49c"
大小选择器帮您根据文件大小选择文件。