当前位置: 首页 >> 欧美电影 >> 老亨利[简繁字幕].Old.Henry.2021.BluRay.1080p.DTS-HD.MA5.1.x265.10bit-bt9527.cc 7.68GB >> 正文

老亨利[简繁字幕].Old.Henry.2021.BluRay.1080p.DTS-HD.MA5.1.x265.10bit-bt9527.cc 7.68GB

2021年11月23日 08:58:48     电影发布:来源于网络     电影分类:欧美电影     评论(0)    

老亨利[简繁字幕].Old.Henry.2021.BluRay.1080p.DTS HD.MA5.1.x265.10bit bt9527.cc 7.68GB 西部 犯罪片 欧美电影  第1张

◎译 名 老亨利

◎片 名 Old Henry

◎年 代 2021

◎产 地 美国

◎类 别 犯罪 / 西部

◎语 言 英语

◎上映日期 2021-09-07(威尼斯电影节) / 2021-10-01(美国)

◎IMDb链接 https://www.imdb.com/title/tt12731980/

◎豆瓣评分 7.3/10 (2733人评价)

◎豆瓣链接 https://movie.douban.com/subject/35442458/

◎片 长 99分钟

◎导 演 帕塔诗·蓬西里 Potsy Ponciroli (id:1460990)

◎编 剧 帕塔诗·蓬西里 Potsy Ponciroli (id:1460990)

◎演 员 斯蒂芬·多尔夫 Stephen Dorff (id:1025188)

蒂姆·布雷克·尼尔森 Tim Blake Nelson (id:1048166)

小理察·斯贝特 Richard Speight Jr. (id:1049788)

马克斯·阿西涅加 Max Arciniega (id:1341353)

斯科特·黑兹 Scott Haze (id:1335114)

布拉德·卡特 Brad Carter (id:1213844)

特雷斯·阿德金斯 Trace Adkins (id:1057984)

加文·刘易斯 Gavin Lewis (id:1434386)

帕塔诗·蓬西里 Potsy Ponciroli (id:1460990)

◎标 签 西部 / 美国 / 犯罪 / 动作 / 2021 / 美国电影 / 剧情 / 电影

◎简 介

一个农民带着一包现金收留一名受伤男子的故事。当一队人来要钱时,他必须决定信任谁。在防御围攻时,他展现了一个持枪的天才,他的真实身份受到了质疑。

  1. ##### MediaInfo ######

  2. General

  3. Unique ID : 90139901931008758106673556302357263240 (0x43D0504A2429AAABF0619A95E762F388)

  4. Complete name : [email protected].COM.mkv

  5. Format : Matroska

  6. Format version : Version 4

  7. File size : 7.67 GiB

  8. Duration : 1 h 38 min

  9. Overall bit rate mode : Variable

  10. Overall bit rate : 11.1 Mb/s

  11. Encoded date : UTC 2021-11-21 13:57:24

  12. Writing application : mkvmerge v49.0.0 ('Sick Of Losing Soulmates') 64-bit

  13. Writing library : libebml v1.4.0 + libmatroska v1.6.1


  14. Video

  15. ID : 1

  16. Format : HEVC

  17. Format/Info : High Efficiency Video Coding

  18. Format profile : Main [email protected]@High

  19. Codec ID : V_MPEGH/ISO/HEVC

  20. Duration : 1 h 38 min

  21. Bit rate : 7 808 kb/s

  22. Width : 1 920 pixels

  23. Height : 720 pixels

  24. Display aspect ratio : 2.667

  25. Frame rate mode : Constant

  26. Frame rate : 23.976 (24000/1001/53354) FPS

  27. Color space : YUV

  28. Chroma subsampling : 4:2:0

  29. Bit depth : 10 bits

  30. Bits/(Pixel*Frame) : 0.236

  31. Stream size : 5.38 GiB (70%)

  32. Title : HEVC, [email protected]@High, 24/1.001 fps @ 7808 kbps

  33. Writing library : x265 3.4+14-gd419c7152:[Windows][GCC 10.2.0][64 bit] 10bit

  34. Encoding settings : cpuid=533541111039 / frame-threads=4 / numa-pools=16 / wpp / pmode / pme / no-psnr / no-ssim / log-level=2 / input-csp=1 / input-res=1920x720 / interlace=0 / total-frames=141817 / level-idc=51 / high-tier=1 / uhd-bd=0 / ref=5 / no-allow-non-conformance / no-repeat-headers / annexb / no-aud / no-hrd / info / hash=0 / no-temporal-layers / open-gop / min-keyint=24 / keyint=240 / gop-lookahead=0 / bframes=6 / b-adapt=2 / b-pyramid / bframe-bias=0 / rc-lookahead=40 / lookahead-slices=0 / NTMzNTQ=uuDQuD2mJt9fsCf / scenecut=40 / hist-scenecut=0 / radl=0 / no-splice / no-intra-refresh / ctu=32 / min-cu-size=8 / no-rect / no-amp / max-tu-size=32 / tu-inter-depth=3 / tu-intra-depth=3 / limit-tu=4 / rdoq-level=2 / dynamic-rd=0.00 / no-ssim-rd / signhide / no-tskip / nr-intra=0 / nr-inter=0 / no-constrained-intra / no-strong-intra-smoothing / max-merge=4 / limit-refs=1 / limit-modes / me=3 / subme=4 / merange=25 / temporal-mvp / no-frame-dup / no-hme / weightp / weightb / no-analyze-src-pics / deblock=-3:-3 / no-sao / no-sao-non-deblock / rd=6 / selective-sao=0 / no-early-skip / rskip / no-fast-intra / no-tskip-fast / no-cu-lossless / b-intra / no-splitrd-skip / rdpenalty=0 / psy-rd=2.00 / psy-rdoq=1.00 / no-rd-refine / no-lossless / cbqpoffs=0 / crqpoffs=0 / rc=crf / crf=17.0 / qcomp=0.65 / qpstep=4 / stats-write=0 / stats-read=0 / vbv-maxrate=80000 / vbv-bufsize=80000 / vbv-init=0.9 / crf-max=0.0 / crf-min=0.0 / ipratio=1.40 / pbratio=1.30 / aq-mode=2 / aq-strength=0.85 / cutree / zone-count=0 / no-strict-cbr / qg-size=32 / no-rc-grain / qpmax=69 / qpmin=0 / no-const-vbv / sar=1 / overscan=0 / videoformat=5 / range=0 / colorprim=1 / transfer=1 / colormatrix=1 / chromaloc=0 / display-window=0 / cll=0,0 / min-luma=0 / max-luma=1023 / log2-max-poc-lsb=8 / vui-timing-info / vui-hrd-info / slices=1 / no-opt-qp-pps / no-opt-ref-list-length-pps / no-multi-pass-opt-rps / scenecut-bias=0.05 / hist-threshold=0.03 / no-opt-cu-delta-qp / no-aq-motion / no-hdr10 / no-hdr10-opt / no-dhdr10-opt / no-idr-recovery-sei / analysis-reuse-level=0 / analysis-save-reuse-level=0 / analysis-load-reuse-level=0 / scale-factor=0 / refine-intra=0 / refine-inter=0 / refine-mv=1 / refine-ctu-distortion=0 / no-limit-sao / ctu-info=0 / no-lowpass-dct / refine-analysis-type=0 / copy-pic=1 / max-ausize-factor=1.0 / no-dynamic-refine / no-single-sei / no-hevc-aq / no-svt / no-field / qp-adaptation-range=1.00 / no-scenecut-aware-qpconformance-window-offsets / right=0 / bottom=0 / NTMzNTQ= / decoder-max-rate=0

  35. Language : English

  36. Default : Yes

  37. Forced : No

  38. Color range : Limited

  39. Color primaries : BT.709

  40. Transfer characteristics : BT.709

  41. Matrix coefficients : BT.709


  42. Audio

  43. ID : 2

  44. Format : DTS XLL

  45. Format/Info : Digital Theater Systems

  46. Commercial name : DTS-HD Master Audio

  47. Codec ID : A_DTS

  48. Duration : 1 h 38 min

  49. Bit rate mode : Variable

  50. Bit rate : 3 200 kb/s

  51. Channel(s) : 6 channels

  52. Channel layout : C L R Ls Rs LFE

  53. Sampling rate : 48.0 kHz

  54. Frame rate : 93.750 FPS (512 SPF)

  55. Bit depth : 24 bits

  56. Compression mode : Lossless

  57. Stream size : 2.20 GiB (29%)

  58. Title : English DTS-HD Master Audio 5.1 @ 3199 Kbps

  59. Language : English

  60. Default : Yes

  61. Forced : No


  62. Text #1

  63. ID : 3

  64. Format : PGS

  65. Codec ID : S_HDMV/PGS

  66. Codec ID/Info : Picture based subtitle format used on BDs/HD-DVDs

  67. Duration : 1 h 38 min

  68. Bit rate : 25.0 kb/s

  69. Count of elements : 1735

  70. Stream size : 17.6 MiB (0%)

  71. Title : Eng/SUP

  72. Language : English

  73. Default : No

  74. Forced : No


  75. Text #2

  76. ID : 4

  77. Format : PGS

  78. Codec ID : S_HDMV/PGS

  79. Codec ID/Info : Picture based subtitle format used on BDs/HD-DVDs

  80. Duration : 1 h 33 min

  81. Bit rate : 25.8 kb/s

  82. Count of elements : 1716

  83. Stream size : 17.3 MiB (0%)

  84. Title : Chs/SUP 简体

  85. Language : Chinese

  86. Default : Yes

  87. Forced : No


  88. Text #3

  89. ID : 5

  90. Format : PGS

  91. Codec ID : S_HDMV/PGS

  92. Codec ID/Info : Picture based subtitle format used on BDs/HD-DVDs

  93. Duration : 1 h 33 min

  94. Bit rate : 26.9 kb/s

  95. Count of elements : 1716

  96. Stream size : 18.0 MiB (0%)

  97. Title : Cht/SUP 繁体

  98. Language : Chinese

  99. Default : No

  100. Forced : No


  101. Text #4

  102. ID : 6

  103. Format : PGS

  104. Codec ID : S_HDMV/PGS

  105. Codec ID/Info : Picture based subtitle format used on BDs/HD-DVDs

  106. Duration : 1 h 33 min

  107. Bit rate : 30.2 kb/s

  108. Count of elements : 1716

  109. Stream size : 20.3 MiB (0%)

  110. Title : Chs/SUP 简英双语

  111. Language : Chinese

  112. Default : No

  113. Forced : No


  114. Text #5

  115. ID : 7

  116. Format : PGS

  117. Codec ID : S_HDMV/PGS

  118. Codec ID/Info : Picture based subtitle format used on BDs/HD-DVDs

  119. Duration : 1 h 33 min

  120. Bit rate : 31.2 kb/s

  121. Count of elements : 1716

  122. Stream size : 21.0 MiB (0%)

  123. Title : Cht/SUP 繁英双语

  124. Language : Chinese

  125. Default : No

  126. Forced : No


  127. Menu

  128. 00:00:00.000 : :Chapter 01

  129. 00:05:12.895 : :Chapter 02

  130. 00:12:22.700 : :Chapter 03

  131. 00:22:36.021 : :Chapter 04

  132. 00:28:13.483 : :Chapter 05

  133. 00:38:33.936 : :Chapter 06

  134. 00:48:34.494 : :Chapter 07

  135. 00:56:05.612 : :Chapter 08

  136. 01:04:53.639 : :Chapter 09

  137. 01:12:17.082 : :Chapter 10

  138. 01:18:21.613 : :Chapter 11

  139. 01:31:46.000 : :Chapter 12




复制代码



文件下载


除非特别注明,本文『老亨利[简繁字幕].Old.Henry.2021.BluRay.1080p.DTS-HD.MA5.1.x265.10bit-bt9527.cc 7.68GB』来源于互联网机器人自动抓取,非本站原创。 浮游电影网不对本文拥有版权,如有侵犯,请联系邮箱:fuyouu#yandex.com[#换成@]投诉。我们会在15个工作日内删除。 但烦请转载时请标明出处:“本文转载于『浮游电影网』,原文地址:https://www.fuyouu.com/18952.html

评论吧骚年!

发表你的见解   

昵称*

E-mail*(建议输入,以便收到博主回复的提示邮件)

验证码*

您可以使用eMule或eMule Mod(Windows)、aMule(Win、Linux、Mac)等软件下载eD2k链接。。
eMule收藏集(.emulecollection)文件是您选中的所有链接的列表文件。eMule可以直接下载它们。
按住SHIFT键选择可以选中多个选择框。
可用文件名和大小选择器来选择文件。
文件名选择器帮您根据文件名称或后缀来选择文件。不分大小写。
符号使用:
和:空格( )、+
不包含:-
或:|
转义:一对英文引号("");
匹配开头:^
匹配结尾:$
例如:
选中所有名称中包含有“eMule”或“0.49c”字眼,但不包含有“exe”字眼的:emule|0.49c -exe
选中所有名称的开头是“eMule”,结尾是“0.49c”的:^emule 0.49c$
选中所有名称中带有“eMule 0.49c”的(必须是“eMule 0.49c”,中间没有别的字符,不能是“eMule fake 0.49c”),需要转义:"emule 0.49c"
大小选择器帮您根据文件大小选择文件。