当前位置: 首页 >> 港台电影 >> 不速来客[国语配音/中文字幕].Knock.Knock.2021.WEB-DL.4K.H265.DDP.5.1-bt9527.cc 4.94GB >> 正文

不速来客[国语配音/中文字幕].Knock.Knock.2021.WEB-DL.4K.H265.DDP.5.1-bt9527.cc 4.94GB

2021年11月22日 08:50:15     电影发布:来源于网络     电影分类:港台电影     评论(0)    

不速来客[国语配音/中文字幕].Knock.Knock.2021.WEB DL.4K.H265.DDP.5.1 bt9527.cc 4.94GB 悬疑片 喜剧片 港台电影  第1张

◎译 名 不速来客 / 眼见为虚 / Knock Knock

◎年 代 2021

◎产 地 中国大陆

◎类 别 喜剧 / 悬疑

◎语 言 汉语普通话

◎上映日期 2021-10-22(中国大陆) / 2021-09-26(北京国际电影节)

◎IMDb链接 https://www.imdb.com/title/tt15554682/

◎豆瓣评分 6.9/10 (25071人评价)

◎豆瓣链接 https://movie.douban.com/subject/34927916/

◎片 长 107分钟

◎导 演 刘翔 Xiang Liu (id:1461911)

◎编 剧 刘翔 Xiang Liu (id:1461911)

龙也 Ye Long (id:1462059)

◎演 员 范伟 Wei Fan (id:1051526)

窦骁 Shawn Dou (id:1274225)

张颂文 Songwen Zhang (id:1314329)

朱珠 Zhu Zhu (id:1317092)

梁超 Chao Liang (id:1340702)

胡明 Ming Hu (id:1275967)

高尚 Shang Gao (id:1421616)

蔡鹭 Lu Cai (id:1342290)

田壮壮 Zhuangzhuang Tian (id:1274287)

郑志昊 Zhihao Zheng (id:1397531)

陆叶青 (id:1462045)

刘国男 Guonan Liu (id:1428690)

王强 (id:1447760)

郝季风 (id:1462046)

马焱洁 (id:1450321)

顾思斌 Sibin Gu (id:1434936)

付佳 Jia Fu (id:1318681)

杨向华 Xianghua Yang (id:1422365)

许哲 (id:1462047)

梁超 Chao Liang (id:1321201)

王正昱 Zhengyu Wang (id:1428691)

孙霁雯 Jiwen Sun (id:1449720)

赵海城 Haicheng Zhao (id:1392082)

宋佳 (id:1422369)

马江 (id:1462049)

王莹 (id:1461502)

东方晓 (id:1462050)

何安琪 (id:1462051)

袁晶 (id:1462052)

高小阳 Xiaoyang Gao (id:1408650)

李缤 (id:1462055)

郝重升 (id:1462054)

刘翔 Xiang Liu (id:1461911)

张一凡 Yifan Zhang (id:1324509)

高铭 (id:1462058)

刘晶 Jing Liu (id:1384900)

吴江 Jiang Wu (id:1307825)

徐睿智 (id:1462056)

崔海福 (id:1462057)

◎标 签 悬疑 / 黑色幽默 / 反转 / 喜剧 / 犯罪 / 国产 / 2021 / 中国

◎简 介

这一晚,窃贼老李(范伟 饰)进入一处破旧的居民楼内行窃,不料却目击了一场命案:神秘女子(朱珠 饰)离奇被杀,就在老李拼命制伏凶手阎正(张颂文 饰)之际,外卖员马明亮(窦骁 饰)突然也莫名其妙地出现在这个房间之内。

三人一头雾水,全然不知对方身份,不断反转的剧情即将揭开层层真相……

◎获奖情况 (共1项)

第11届北京国际电影节 (2021)

注目未来单元 最受注目影片(提名)

└──刘翔 (id:1461911)

  1. ##### MediaInfo ######

  2. General

  3. Unique ID : 334094993507134550458688457205538966137 (0xFB585AF020235C7B8C4523E40DDD4A79)

  4. Complete name : Knock Knock 2021 WEB-DL 4K H265 DDP [email protected]

  5. Format : Matroska

  6. Format version : Version 4

  7. File size : 4.94 GiB

  8. Duration : 1 h 46 min

  9. Overall bit rate : 6 674 kb/s

  10. Encoded date : UTC 2021-11-21 03:36:59

  11. Writing application : mkvmerge v62.0.0 ('Apollo') 64-bit

  12. Writing library : libebml v1.4.2 + libmatroska v1.6.4


  13. Video

  14. ID : 1

  15. Format : HEVC

  16. Format/Info : High Efficiency Video Coding

  17. Format profile : [email protected]@Main

  18. Codec ID : V_MPEGH/ISO/HEVC

  19. Duration : 1 h 46 min

  20. Bit rate : 6 285 kb/s

  21. Width : 3 840 pixels

  22. Height : 1 626 pixels

  23. Display aspect ratio : 2.35:1

  24. Frame rate mode : Constant

  25. Frame rate : 24.000 FPS

  26. Color space : YUV

  27. Chroma subsampling : 4:2:0

  28. Bit depth : 8 bits

  29. Bits/(Pixel*Frame) : 0.042

  30. Stream size : 4.65 GiB (94%)

  31. Writing library : HW265_Code

  32. Default : Yes

  33. Forced : No

  34. Color range : Limited

  35. Color primaries : BT.709

  36. Transfer characteristics : BT.709

  37. Matrix coefficients : BT.709


  38. Audio #1

  39. ID : 2

  40. Format : E-AC-3

  41. Format/Info : Enhanced AC-3

  42. Commercial name : Dolby Digital Plus

  43. Codec ID : A_EAC3

  44. Duration : 1 h 46 min

  45. Bit rate mode : Constant

  46. Bit rate : 256 kb/s

  47. Channel(s) : 6 channels

  48. Channel layout : L R C LFE Ls Rs

  49. Sampling rate : 48.0 kHz

  50. Frame rate : 31.250 FPS (1536 SPF)

  51. Compression mode : Lossy

  52. Stream size : 194 MiB (4%)

  53. Language : Chinese

  54. Service kind : Complete Main

  55. Default : Yes

  56. Forced : No


  57. Audio #2

  58. ID : 3

  59. Format : AAC LC SBR

  60. Format/Info : Advanced Audio Codec Low Complexity with Spectral Band Replication

  61. Commercial name : HE-AAC

  62. Format settings : NBC

  63. Codec ID : A_AAC-5

  64. Duration : 1 h 46 min

  65. Bit rate : 132 kb/s

  66. Channel(s) : 6 channels

  67. Channel layout : C L R Ls Rs LFE

  68. Sampling rate : 48.0 kHz

  69. Frame rate : 23.438 FPS (2048 SPF)

  70. Compression mode : Lossy

  71. Stream size : 99.4 MiB (2%)

  72. Language : Chinese

  73. Default : No

  74. Forced : No




复制代码




文件下载


除非特别注明,本文『不速来客[国语配音/中文字幕].Knock.Knock.2021.WEB-DL.4K.H265.DDP.5.1-bt9527.cc 4.94GB』来源于互联网机器人自动抓取,非本站原创。 浮游电影网不对本文拥有版权,如有侵犯,请联系邮箱:fuyouu#yandex.com[#换成@]投诉。我们会在15个工作日内删除。 但烦请转载时请标明出处:“本文转载于『浮游电影网』,原文地址:https://www.fuyouu.com/18947.html

评论吧骚年!

发表你的见解   

昵称*

E-mail*(建议输入,以便收到博主回复的提示邮件)

验证码*

您可以使用eMule或eMule Mod(Windows)、aMule(Win、Linux、Mac)等软件下载eD2k链接。。
eMule收藏集(.emulecollection)文件是您选中的所有链接的列表文件。eMule可以直接下载它们。
按住SHIFT键选择可以选中多个选择框。
可用文件名和大小选择器来选择文件。
文件名选择器帮您根据文件名称或后缀来选择文件。不分大小写。
符号使用:
和:空格( )、+
不包含:-
或:|
转义:一对英文引号("");
匹配开头:^
匹配结尾:$
例如:
选中所有名称中包含有“eMule”或“0.49c”字眼,但不包含有“exe”字眼的:emule|0.49c -exe
选中所有名称的开头是“eMule”,结尾是“0.49c”的:^emule 0.49c$
选中所有名称中带有“eMule 0.49c”的(必须是“eMule 0.49c”,中间没有别的字符,不能是“eMule fake 0.49c”),需要转义:"emule 0.49c"
大小选择器帮您根据文件大小选择文件。