当前位置: 首页 >> 日韩电影 >> 濑户内海[中文字幕].Setoutsumi.2016.1080p.WEB-DL.H264.AAC-bt9527.cc 2.64GB >> 正文

濑户内海[中文字幕].Setoutsumi.2016.1080p.WEB-DL.H264.AAC-bt9527.cc 2.64GB

2021年11月22日 08:48:53     电影发布:来源于网络     电影分类:日韩电影     评论(0)    

濑户内海[中文字幕].Setoutsumi.2016.1080p.WEB DL.H264.AAC bt9527.cc 2.64GB 喜剧片 剧情片 日韩电影  第1张

◎译 名 濑户内海/SetoNaikai/Setoutsumi/濑户与内海(台)

◎片 名 セトウツミ

◎年 代 2016

◎产 地 日本

◎类 别 剧情 / 喜剧

◎语 言 日语

◎上映日期 2016-06-12(上海电影节) / 2016-07-02(日本)

◎豆瓣评分 8.3/10 from 87062 users

◎豆瓣链接 https://movie.douban.com/subject/26362351/

◎片 长 75分钟

◎导 演 大森立嗣 Tatsushi Ohmori

◎编 剧 大森立嗣 Tatsushi Ohmori / 此元和津也 Kazuya Konomoto / 宫崎大 Dai Miyazaki

◎主 演 池松壮亮 Sosuke Ikematsu

菅田将晖 Masaki Suda

中条彩未 Ayami Nakajo

铃木卓尔 Takuji Suzuki

宇野祥平 Sh?hei Uno

冈山天音 Okayama Amane

成田瑛基 Eiki Narita

牧口元美 Motomi Makiguchi

◎标 签 日本 | 青春 | 喜剧 | 成长 | 温情 | 2016 | 剧情 | 搞笑

◎简 介

在这个故事里,濑户内海并非地名,而是大阪某男子高中二年级两个男生的名字。濑户小吉(菅田将晖 饰)身形瘦弱高挑,他曾是足球部的一员,但因和前辈关系不睦而退出社团。内海想(池松壮亮 饰)文质彬彬,沉默寡言,却也并非只知道读书的书呆子。不知为何,这两个看起来完全没有交集的“回家部”成了朋友。每当下午放学后,他们便相约来到河边坐下。在内海去补习班前的这段时间里,两个人便海阔天空地闲聊起来。他们的话题无所不包,却又无聊空洞。当那个妖精一般的女孩樫村一期(中条彩未 饰)出现时,不经意间在木讷的大男孩心间激起波澜……

本片根据此元和津也的同名漫画改编

◎获奖情况

第3届豆瓣电影年度榜单 ?(2016)

评分最高的日本电影(提名)

评分最高的喜剧片(提名)

  1. ##### MediaInfo ######

  2. General

  3. Unique ID : 267422670151062697261981087855016925604 (0xC92FBB9A6E8A4FD59A84D3D2E44FD9A4)

  4. Complete name : [email protected]

  5. Format : Matroska

  6. Format version : Version 4

  7. File size : 2.64 GiB

  8. Duration : 1 h 15 min

  9. Overall bit rate : 5 006 kb/s

  10. Encoded date : UTC 2021-11-21 11:47:44

  11. Writing application : mkvmerge v56.1.0 ('My Friend') 64-bit

  12. Writing library : libebml v1.4.2 + libmatroska v1.6.4


  13. Video

  14. ID : 1

  15. Format : AVC

  16. Format/Info : Advanced Video Codec

  17. Format profile : [email protected]

  18. Format settings : 3 Ref Frames

  19. Format settings, CABAC : No

  20. Format settings, Reference frames : 3 frames

  21. Format settings, GOP : M=1, N=30

  22. Codec ID : V_MPEG4/ISO/AVC

  23. Duration : 1 h 15 min

  24. Bit rate : 4 875 kb/s

  25. Width : 1 920 pixels

  26. Height : 1 080 pixels

  27. Display aspect ratio : 16:9

  28. Frame rate mode : Constant

  29. Frame rate : 30.000 FPS

  30. Color space : YUV

  31. Chroma subsampling : 4:2:0

  32. Bit depth : 8 bits

  33. Scan type : Progressive

  34. Bits/(Pixel*Frame) : 0.078

  35. Stream size : 2.57 GiB (97%)

  36. Language : English

  37. Default : Yes

  38. Forced : No


  39. Audio

  40. ID : 2

  41. Format : AAC LC

  42. Format/Info : Advanced Audio Codec Low Complexity

  43. Codec ID : A_AAC-2

  44. Duration : 1 h 15 min

  45. Bit rate : 128 kb/s

  46. Channel(s) : 2 channels

  47. Channel layout : L R

  48. Sampling rate : 44.1 kHz

  49. Frame rate : 43.066 FPS (1024 SPF)

  50. Compression mode : Lossy

  51. Stream size : 69.2 MiB (3%)

  52. Title : Japanese

  53. Language : Japanese

  54. Default : Yes

  55. Forced : No


  56. Text #1

  57. ID : 3

  58. Format : UTF-8

  59. Codec ID : S_TEXT/UTF8

  60. Codec ID/Info : UTF-8 Plain Text

  61. Duration : 1 h 11 min

  62. Bit rate : 42 b/s

  63. Count of elements : 858

  64. Stream size : 22.3 KiB (0%)

  65. Title : Chinese Simplified

  66. Language : Chinese

  67. Default : Yes

  68. Forced : No


  69. Text #2

  70. ID : 4

  71. Format : UTF-8

  72. Codec ID : S_TEXT/UTF8

  73. Codec ID/Info : UTF-8 Plain Text

  74. Duration : 1 h 11 min

  75. Bit rate : 42 b/s

  76. Count of elements : 858

  77. Stream size : 22.3 KiB (0%)

  78. Title : Chinese Traditional

  79. Language : Chinese

  80. Default : No

  81. Forced : No




复制代码



文件下载


除非特别注明,本文『濑户内海[中文字幕].Setoutsumi.2016.1080p.WEB-DL.H264.AAC-bt9527.cc 2.64GB』来源于互联网机器人自动抓取,非本站原创。 浮游电影网不对本文拥有版权,如有侵犯,请联系邮箱:fuyouu#yandex.com[#换成@]投诉。我们会在15个工作日内删除。 但烦请转载时请标明出处:“本文转载于『浮游电影网』,原文地址:https://www.fuyouu.com/18946.html

评论吧骚年!

发表你的见解   

昵称*

E-mail*(建议输入,以便收到博主回复的提示邮件)

验证码*

您可以使用eMule或eMule Mod(Windows)、aMule(Win、Linux、Mac)等软件下载eD2k链接。。
eMule收藏集(.emulecollection)文件是您选中的所有链接的列表文件。eMule可以直接下载它们。
按住SHIFT键选择可以选中多个选择框。
可用文件名和大小选择器来选择文件。
文件名选择器帮您根据文件名称或后缀来选择文件。不分大小写。
符号使用:
和:空格( )、+
不包含:-
或:|
转义:一对英文引号("");
匹配开头:^
匹配结尾:$
例如:
选中所有名称中包含有“eMule”或“0.49c”字眼,但不包含有“exe”字眼的:emule|0.49c -exe
选中所有名称的开头是“eMule”,结尾是“0.49c”的:^emule 0.49c$
选中所有名称中带有“eMule 0.49c”的(必须是“eMule 0.49c”,中间没有别的字符,不能是“eMule fake 0.49c”),需要转义:"emule 0.49c"
大小选择器帮您根据文件大小选择文件。