当前位置: 首页 >> 国产电影 >> 巨兽岛[国语配音/中文字幕].Monster.Island.2021.2160p.WEB-DL.H265.DDP2.0-bt9527.cc 2.06GB >> 正文

巨兽岛[国语配音/中文字幕].Monster.Island.2021.2160p.WEB-DL.H265.DDP2.0-bt9527.cc 2.06GB

2021年11月22日 08:47:35     电影发布:来源于网络     电影分类:国产电影     评论(0)    

巨兽岛[国语配音/中文字幕].Monster.Island.2021.2160p.WEB DL.H265.DDP2.0 bt9527.cc 2.06GB 科幻片 剧情片 国产电影  第1张

◎译 名 金刚岛

◎片 名 巨兽岛

◎年 代 2021

◎产 地 中国大陆

◎类 别

◎语 言 汉语普通话

◎上映日期 2021-11-21(中国大陆)

◎豆瓣评分 /10 from 0 users

◎豆瓣链接 https://movie.douban.com/subject/35064909/

◎片 长 80分钟

◎编 剧 王健 Jian Wang

◎标 签 大陆 | 神剧 | 2021 | 网络电影 | 奇幻 | 中国 | 2021年看过

◎简 介

生物系专业毕业的高材生李维无意间在网上看到东南亚附近某座常年被浓雾笼罩的岛屿上存有巨型昆虫的消息,便约上公司几个同事假期一同去岛上探险,目的是为了采集昆虫标本。几人几经周折登岛后发现这个岛上不仅有巨型昆虫,同时还伴随着嗜血的庞然大物,众人遭遇生命危急时恰好被一堆雇佣兵相救,这队人上岛是为了执行一项特殊任务。但前面等待众人的危险却远远超乎他们的想像…

  1. ##### MediaInfo ######

  2. General

  3. Unique ID : 227767471565718073586846742665058853681 (0xAB5A6B5CC9A8FD52845251A8B3882331)

  4. Complete name : 巨兽岛[email protected]kv

  5. Format : Matroska

  6. Format version : Version 4

  7. File size : 2.06 GiB

  8. Duration : 1 h 11 min

  9. Overall bit rate : 4 097 kb/s

  10. Encoded date : UTC 2021-11-21 10:56:36

  11. Writing application : mkvmerge v56.1.0 ('My Friend') 64-bit

  12. Writing library : libebml v1.4.2 + libmatroska v1.6.4


  13. Video

  14. ID : 2

  15. Format : AVC

  16. Format/Info : Advanced Video Codec

  17. Format profile : [email protected]

  18. Format settings : CABAC / 4 Ref Frames

  19. Format settings, CABAC : Yes

  20. Format settings, Reference frames : 4 frames

  21. Codec ID : V_MPEG4/ISO/AVC

  22. Duration : 1 h 11 min

  23. Bit rate : 3 839 kb/s

  24. Width : 1 920 pixels

  25. Height : 1 080 pixels

  26. Display aspect ratio : 16:9

  27. Frame rate mode : Constant

  28. Frame rate : 24.000 FPS

  29. Color space : YUV

  30. Chroma subsampling : 4:2:0

  31. Bit depth : 8 bits

  32. Scan type : Progressive

  33. Bits/(Pixel*Frame) : 0.077

  34. Stream size : 1.93 GiB (94%)

  35. Writing library : ptw-1.0.137 rcm-adapt vs-93 vwk

  36. Default : Yes

  37. Forced : No

  38. Color range : Limited

  39. Color primaries : BT.709

  40. Transfer characteristics : BT.709

  41. Matrix coefficients : BT.709


  42. Audio

  43. ID : 1

  44. Format : E-AC-3

  45. Format/Info : Enhanced AC-3

  46. Commercial name : Dolby Digital Plus

  47. Codec ID : A_EAC3

  48. Duration : 1 h 11 min

  49. Bit rate mode : Constant

  50. Bit rate : 256 kb/s

  51. Channel(s) : 2 channels

  52. Channel layout : L R

  53. Sampling rate : 48.0 kHz

  54. Frame rate : 31.250 FPS (1536 SPF)

  55. Compression mode : Lossy

  56. Stream size : 132 MiB (6%)

  57. Service kind : Complete Main

  58. Default : Yes

  59. Forced : No




复制代码



文件下载


除非特别注明,本文『巨兽岛[国语配音/中文字幕].Monster.Island.2021.2160p.WEB-DL.H265.DDP2.0-bt9527.cc 2.06GB』来源于互联网机器人自动抓取,非本站原创。 浮游电影网不对本文拥有版权,如有侵犯,请联系邮箱:fuyouu#yandex.com[#换成@]投诉。我们会在15个工作日内删除。 但烦请转载时请标明出处:“本文转载于『浮游电影网』,原文地址:https://www.fuyouu.com/18945.html

评论吧骚年!

发表你的见解   

昵称*

E-mail*(建议输入,以便收到博主回复的提示邮件)

验证码*

您可以使用eMule或eMule Mod(Windows)、aMule(Win、Linux、Mac)等软件下载eD2k链接。。
eMule收藏集(.emulecollection)文件是您选中的所有链接的列表文件。eMule可以直接下载它们。
按住SHIFT键选择可以选中多个选择框。
可用文件名和大小选择器来选择文件。
文件名选择器帮您根据文件名称或后缀来选择文件。不分大小写。
符号使用:
和:空格( )、+
不包含:-
或:|
转义:一对英文引号("");
匹配开头:^
匹配结尾:$
例如:
选中所有名称中包含有“eMule”或“0.49c”字眼,但不包含有“exe”字眼的:emule|0.49c -exe
选中所有名称的开头是“eMule”,结尾是“0.49c”的:^emule 0.49c$
选中所有名称中带有“eMule 0.49c”的(必须是“eMule 0.49c”,中间没有别的字符,不能是“eMule fake 0.49c”),需要转义:"emule 0.49c"
大小选择器帮您根据文件大小选择文件。