当前位置: 首页 >> 日韩电影 >> 通话惊魂[中文字幕].On.the.Line.2021.1080p.WEB-DL.H264.AAC-bt9527.cc 6.25GB >> 正文

通话惊魂[中文字幕].On.the.Line.2021.1080p.WEB-DL.H264.AAC-bt9527.cc 6.25GB

2021年11月22日 08:43:42     电影发布:来源于网络     电影分类:日韩电影     评论(0)    

通话惊魂[中文字幕].On.the.Line.2021.1080p.WEB DL.H264.AAC bt9527.cc 6.25GB 犯罪片 动作片 日韩电影  第1张

◎译 名 通话惊魂/On the Line/Voice/拦截声命线(台)

◎片 名 ???

◎年 代 2021

◎产 地 韩国

◎类 别 动作 / 犯罪

◎语 言 韩语

◎上映日期 2021-09-15(韩国)

◎豆瓣评分 5.8/10 from 667 users

◎豆瓣链接 https://movie.douban.com/subject/35181721/

◎片 长 109分钟

◎导 演 金曲 Gok Kim / 金宣 Sun Kim

◎主 演 卞约汉 Yo-han Byun

金武烈 Moo-yeol Kim

朴明勋 Myeong-hoon Park

李圭成 Gyoo-seong Lee

姜德宗 Deuk-jong Kang

◎标 签 犯罪 | 韩国 | 韩国电影 | 2021 | 社会 | 剧情 | 卞耀汉 | 韩影

◎简 介

电影讲述陷入电话诈骗组织的陷阱,失去一切 的"徐俊"(卞约汉 饰)潜入中国组织的本部与电话诈骗行业的设计者郭普罗(金武烈 饰)相遇后展开的故事。

  1. ##### MediaInfo ######

  2. General

  3. Unique ID : 149960066451634732230768525109536178333 (0x70D1421C49E3F3FD13F320B6D237409D)

  4. Complete name : [email protected]

  5. Format : Matroska

  6. Format version : Version 4

  7. File size : 6.25 GiB

  8. Duration : 1 h 49 min

  9. Overall bit rate : 8 193 kb/s

  10. Encoded date : UTC 2021-11-20 11:38:04

  11. Writing application : mkvmerge v56.1.0 ('My Friend') 64-bit

  12. Writing library : libebml v1.4.2 + libmatroska v1.6.4


  13. Video

  14. ID : 1

  15. Format : AVC

  16. Format/Info : Advanced Video Codec

  17. Format profile : [email protected]

  18. Format settings : CABAC / 2 Ref Frames

  19. Format settings, CABAC : Yes

  20. Format settings, Reference frames : 2 frames

  21. Format settings, GOP : M=1, N=30

  22. Codec ID : V_MPEG4/ISO/AVC

  23. Duration : 1 h 49 min

  24. Bit rate mode : Constant

  25. Bit rate : 8 000 kb/s

  26. Width : 1 920 pixels

  27. Height : 1 080 pixels

  28. Display aspect ratio : 16:9

  29. Frame rate mode : Constant

  30. Frame rate : 23.976 (24000/1001/53354) FPS

  31. Color space : YUV

  32. Chroma subsampling : 4:2:0

  33. Bit depth : 8 bits

  34. Scan type : Progressive

  35. Bits/(Pixel*Frame) : 0.161

  36. Stream size : 6.10 GiB (98%)

  37. Default : Yes

  38. Forced : No


  39. Audio

  40. ID : 2

  41. Format : AAC LC SBR

  42. Format/Info : Advanced Audio Codec Low Complexity with Spectral Band Replication

  43. Commercial name : HE-AAC

  44. Format settings : Implicit

  45. Codec ID : A_AAC-2

  46. Duration : 1 h 49 min

  47. Bit rate : 192 kb/s

  48. Channel(s) : 6 channels

  49. Channel layout : C L R Ls Rs LFE

  50. Sampling rate : 48.0 kHz

  51. Frame rate : 23.438 FPS (2048 SPF)

  52. Compression mode : Lossy

  53. Stream size : 150 MiB (2%)

  54. Language : Korean

  55. Default : Yes

  56. Forced : No


  57. Text #1

  58. ID : 3

  59. Format : UTF-8

  60. Codec ID : S_TEXT/UTF8

  61. Codec ID/Info : UTF-8 Plain Text

  62. Duration : 1 h 44 min

  63. Bit rate : 48 b/s

  64. Count of elements : 1644

  65. Stream size : 37.4 KiB (0%)

  66. Title : Chinese Simplified

  67. Language : Chinese

  68. Default : Yes

  69. Forced : No


  70. Text #2

  71. ID : 4

  72. Format : UTF-8

  73. Codec ID : S_TEXT/UTF8

  74. Codec ID/Info : UTF-8 Plain Text

  75. Duration : 1 h 44 min

  76. Bit rate : 48 b/s

  77. Count of elements : 1644

  78. Stream size : 37.4 KiB (0%)

  79. Title : Chinese Traditional

  80. Language : Chinese

  81. Default : No

  82. Forced : No




复制代码



文件下载


除非特别注明,本文『通话惊魂[中文字幕].On.the.Line.2021.1080p.WEB-DL.H264.AAC-bt9527.cc 6.25GB』来源于互联网机器人自动抓取,非本站原创。 浮游电影网不对本文拥有版权,如有侵犯,请联系邮箱:fuyouu#yandex.com[#换成@]投诉。我们会在15个工作日内删除。 但烦请转载时请标明出处:“本文转载于『浮游电影网』,原文地址:https://www.fuyouu.com/18942.html

评论吧骚年!

发表你的见解   

昵称*

E-mail*(建议输入,以便收到博主回复的提示邮件)

验证码*

您可以使用eMule或eMule Mod(Windows)、aMule(Win、Linux、Mac)等软件下载eD2k链接。。
eMule收藏集(.emulecollection)文件是您选中的所有链接的列表文件。eMule可以直接下载它们。
按住SHIFT键选择可以选中多个选择框。
可用文件名和大小选择器来选择文件。
文件名选择器帮您根据文件名称或后缀来选择文件。不分大小写。
符号使用:
和:空格( )、+
不包含:-
或:|
转义:一对英文引号("");
匹配开头:^
匹配结尾:$
例如:
选中所有名称中包含有“eMule”或“0.49c”字眼,但不包含有“exe”字眼的:emule|0.49c -exe
选中所有名称的开头是“eMule”,结尾是“0.49c”的:^emule 0.49c$
选中所有名称中带有“eMule 0.49c”的(必须是“eMule 0.49c”,中间没有别的字符,不能是“eMule fake 0.49c”),需要转义:"emule 0.49c"
大小选择器帮您根据文件大小选择文件。