当前位置: 首页 >> 港台电影 >> 只有大海知道[中文字幕].Long.Time.No.Sea.2018.1080p.WEB-DL.H264.AAC-bt9527.cc 2.54GB >> 正文

只有大海知道[中文字幕].Long.Time.No.Sea.2018.1080p.WEB-DL.H264.AAC-bt9527.cc 2.54GB

2021年11月22日 08:42:04     电影发布:来源于网络     电影分类:港台电影     评论(0)    

只有大海知道[中文字幕].Long.Time.No.Sea.2018.1080p.WEB DL.H264.AAC bt9527.cc 2.54GB 儿童 歌舞 家庭片 剧情片 港台电影  第1张

◎译 名 Long Time No Sea

◎片 名 只有大海知道

◎年 代 2018

◎产 地 中国台湾

◎类 别 剧情 / 歌舞 / 家庭 / 儿童

◎语 言 汉语普通话

◎上映日期 2018-06-15(中国台湾)

◎豆瓣评分 7.3/10 from 853 users

◎豆瓣链接 https://movie.douban.com/subject/26845720/

◎片 长 96分钟

◎导 演 崔永徽?? Heather Tsui

◎编 剧 崔永徽?? Heather Tsui

◎主 演 黄尚禾 Shang-Ho Huang

钟家骏 Si Pangoyod

李凤英 Feng-Ying Lee

张灵 Ling Chang

◎标 签 台湾 | 留守儿童 | 成长 | 2018 | 兰屿 | 金马 | 剧情 | 儿童

◎简 介

自小由祖母养大的马那卫(钟家骏 饰),盼望长期在台湾工作的爸爸有天能回到兰屿,陪伴他的成长。学校里新来的年轻老师游仲勋(黄尚禾 饰),一心想争取记功嘉奖、早日调回台湾。学校报名参加了在高雄举办的全国原住民舞蹈大赛,仲勋自告奋勇担任指导老师,而马那卫也想趁机到台湾看爸爸,大家都为了梦想奋力一战。在集训过程中,仲勋却发现,孩子们对代表达悟文化的丁字裤显然排斥,不愿穿着它上台表演。为了让孩子们能顺利登台演出,仲勋尝试去理解、鼓励他们,从文化中找回骄傲与勇气。当他们终于踏上台湾的土地,仲勋和马那卫心中坚守的梦想,也因为这些日子的努力渐渐有了转变…...

◎获奖情况

第55届台北金马影展 ?(2018)

金马奖最佳新演员 钟家骏

第31届东京国际电影节 ?(2018)

亚洲未来单元最佳影片(提名) 崔永徽??

第5届豆瓣电影年度榜单 ?(2018)

年度华语独立佳作(提名)

  1. ##### MediaInfo ######

  2. General

  3. Unique ID : 201043275773626600557391001055122669521 (0x973F86C83EFFB862D6C3FFE54AF7BFD1)

  4. Complete name : [email protected]

  5. Format : Matroska

  6. Format version : Version 4

  7. File size : 2.54 GiB

  8. Duration : 1 h 36 min

  9. Overall bit rate : 3 764 kb/s

  10. Encoded date : UTC 2021-11-20 12:36:34

  11. Writing application : mkvmerge v56.1.0 ('My Friend') 64-bit

  12. Writing library : libebml v1.4.2 + libmatroska v1.6.4


  13. Video

  14. ID : 1

  15. Format : AVC

  16. Format/Info : Advanced Video Codec

  17. Format profile : [email protected]

  18. Format settings : CABAC / 1 Ref Frames

  19. Format settings, CABAC : Yes

  20. Format settings, Reference frames : 1 frame

  21. Format settings, GOP : M=1, N=60

  22. Codec ID : V_MPEG4/ISO/AVC

  23. Duration : 1 h 36 min

  24. Bit rate mode : Constant

  25. Bit rate : 3 636 kb/s

  26. Nominal bit rate : 4 000 kb/s

  27. Width : 1 920 pixels

  28. Height : 1 080 pixels

  29. Display aspect ratio : 16:9

  30. Frame rate mode : Constant

  31. Frame rate : 29.970 (30000/1001/53354) FPS

  32. Color space : YUV

  33. Chroma subsampling : 4:2:0

  34. Bit depth : 8 bits

  35. Scan type : Progressive

  36. Bits/(Pixel*Frame) : 0.059

  37. Stream size : 2.45 GiB (97%)

  38. Language : English

  39. Default : Yes

  40. Forced : No


  41. Audio

  42. ID : 2

  43. Format : AAC LC

  44. Format/Info : Advanced Audio Codec Low Complexity

  45. Codec ID : A_AAC-2

  46. Duration : 1 h 36 min

  47. Bit rate : 125 kb/s

  48. Channel(s) : 2 channels

  49. Channel layout : L R

  50. Sampling rate : 48.0 kHz

  51. Frame rate : 46.875 FPS (1024 SPF)

  52. Compression mode : Lossy

  53. Stream size : 86.7 MiB (3%)

  54. Title : Mandarin

  55. Language : Chinese

  56. Default : Yes

  57. Forced : No


  58. Text #1

  59. ID : 3

  60. Format : UTF-8

  61. Codec ID : S_TEXT/UTF8

  62. Codec ID/Info : UTF-8 Plain Text

  63. Duration : 1 h 31 min

  64. Bit rate : 36 b/s

  65. Count of elements : 1152

  66. Stream size : 24.4 KiB (0%)

  67. Title : Chinese Simplified

  68. Language : Chinese

  69. Default : Yes

  70. Forced : No


  71. Text #2

  72. ID : 4

  73. Format : UTF-8

  74. Codec ID : S_TEXT/UTF8

  75. Codec ID/Info : UTF-8 Plain Text

  76. Duration : 1 h 31 min

  77. Bit rate : 36 b/s

  78. Count of elements : 1152

  79. Stream size : 24.4 KiB (0%)

  80. Title : Chinese Traditional

  81. Language : Chinese

  82. Default : No

  83. Forced : No




复制代码





文件下载


除非特别注明,本文『只有大海知道[中文字幕].Long.Time.No.Sea.2018.1080p.WEB-DL.H264.AAC-bt9527.cc 2.54GB』来源于互联网机器人自动抓取,非本站原创。 浮游电影网不对本文拥有版权,如有侵犯,请联系邮箱:fuyouu#yandex.com[#换成@]投诉。我们会在15个工作日内删除。 但烦请转载时请标明出处:“本文转载于『浮游电影网』,原文地址:https://www.fuyouu.com/18941.html

评论吧骚年!

发表你的见解   

昵称*

E-mail*(建议输入,以便收到博主回复的提示邮件)

验证码*

您可以使用eMule或eMule Mod(Windows)、aMule(Win、Linux、Mac)等软件下载eD2k链接。。
eMule收藏集(.emulecollection)文件是您选中的所有链接的列表文件。eMule可以直接下载它们。
按住SHIFT键选择可以选中多个选择框。
可用文件名和大小选择器来选择文件。
文件名选择器帮您根据文件名称或后缀来选择文件。不分大小写。
符号使用:
和:空格( )、+
不包含:-
或:|
转义:一对英文引号("");
匹配开头:^
匹配结尾:$
例如:
选中所有名称中包含有“eMule”或“0.49c”字眼,但不包含有“exe”字眼的:emule|0.49c -exe
选中所有名称的开头是“eMule”,结尾是“0.49c”的:^emule 0.49c$
选中所有名称中带有“eMule 0.49c”的(必须是“eMule 0.49c”,中间没有别的字符,不能是“eMule fake 0.49c”),需要转义:"emule 0.49c"
大小选择器帮您根据文件大小选择文件。