当前位置: 首页 >> 欧美电影 >> 倒数时刻[中文字幕].Tick.Tick.BOOM!.2021.1080p.NF.WEB-DL.DDP5.1.Atmos.x264-bt9527.cc 14.90GB >> 正文

倒数时刻[中文字幕].Tick.Tick.BOOM!.2021.1080p.NF.WEB-DL.DDP5.1.Atmos.x264-bt9527.cc 14.90GB

2021年11月22日 08:40:21     电影发布:来源于网络     电影分类:欧美电影     评论(0)    

倒数时刻[中文字幕].Tick.Tick.BOOM!.2021.1080p.NF.WEB DL.DDP5.1.Atmos.x264 bt9527.cc 14.90GB 歌舞 传记 剧情片 欧美电影  第1张

◎译 名 倒数时刻 / 滴答,滴答……轰隆隆

◎片 名 Tick, Tick…Boom!

◎年 代 2021

◎产 地 美国

◎类 别 剧情 / 歌舞 / 传记

◎语 言 英语

◎上映日期 2021-11-10(美国电影学会电影节) / 2021-11-12(美国) / 2021-11-19(美国网络)

◎IMDb链接 https://www.imdb.com/title/tt8721424/

◎豆瓣链接 https://movie.douban.com/subject/30279170/

◎片 长 115分钟

◎导 演 林-曼努尔·米兰达 Lin-Manuel Miranda (id:1118251)

◎编 剧 史蒂文·莱文森 Steven Levenson (id:1414703)

乔纳森·拉森 Jonathan Larson (id:1005160)

◎演 员 安德鲁·加菲尔德 Andrew Garfield (id:1022620)

亚历山德拉·希普 Alexandra Shipp (id:1346503)

布莱德利·惠特福德 Bradley Whitford (id:1027158)

凡妮莎·哈金斯 Vanessa Hudgens (id:1025150)

朱迪斯·赖特 Judith Light (id:1004669)

约书亚·亨利 Joshua Henry (id:1388563)

乔安娜·阿德勒 Joanna Adler (id:1392525)

诺亚·罗宾斯 Noah Robbins (id:1364422)

罗宾·德·齐泽斯 Robin de Jesus (id:1185290)

乔丹·费舍 Jordan Fisher (id:1385534)

大卫·伊亚科诺 David Iacono (id:1430487)

◎标 签 安德鲁·加菲尔德 / 歌舞 / 传记 / 音乐 / 美国 / 2021 / 剧情 / LMM

◎简 介

安德鲁·加菲尔德确认主演林-曼努尔·米兰达长片导演首秀——Netflix新片《tick, tick…Boom!》,影片改编自著名音乐剧创作者乔纳森·拉森(《吉屋出租》)的同名自传性质剧作。1996年,拉森因马凡氏综合征引起的主动脉剥离,悲剧性地在《吉屋出租》首次预演的半天前去世,没能见证该剧此后的大热,已故的他也因此剧获得托尼奖和普利策奖。

米兰达曾参演了外百老汇版《Tick, Tick…Boom!》,原剧由拉森创作,也映射了他自己的人生。设定在1990年,主角为加菲饰演的Jon,一个年轻、雄心勃勃的音乐剧作曲家。他在纽约一边当侍者,一边写一部叫《Superbia》的音乐剧,希望能平步青云,开启事业。但他从女友Susan那里感受到了压力,对方已经厌倦了任男友的职业前途牵制自己的人生;同时,Jon的室友Michael也放弃了创作梦想,做了一份高收入的广...

  1. ##### MediaInfo ######

  2. General

  3. Unique ID : 13329108955566536618631232840764662200 (0xA0717CF4DBB931F963065FD40BEA1B8)

  4. Complete name : [email protected]DDQ.COM.mkv

  5. Format : Matroska

  6. Format version : Version 4

  7. File size : 14.9 GiB

  8. Duration : 2 h 1 min

  9. Overall bit rate mode : Variable

  10. Overall bit rate : 17.5 Mb/s

  11. Encoded date : UTC 2021-11-19 12:28:34

  12. Writing application : mkvmerge v62.0.0 ('Apollo') 64-bit

  13. Writing library : libebml v1.4.2 + libmatroska v1.6.4


  14. Video

  15. ID : 1

  16. Format : AVC

  17. Format/Info : Advanced Video Codec

  18. Format profile : [email protected]

  19. Format settings : CABAC / 4 Ref Frames

  20. Format settings, CABAC : Yes

  21. Format settings, Reference frames : 4 frames

  22. Codec ID : V_MPEG4/ISO/AVC

  23. Duration : 2 h 1 min

  24. Bit rate mode : Variable

  25. Bit rate : 7 160 kb/s

  26. Maximum bit rate : 20.0 Mb/s

  27. Width : 1 920 pixels

  28. Height : 1 080 pixels

  29. Display aspect ratio : 16:9

  30. Frame rate mode : Constant

  31. Frame rate : 24.000 FPS

  32. Color space : YUV

  33. Chroma subsampling : 4:2:0

  34. Bit depth : 8 bits

  35. Scan type : Progressive

  36. Bits/(Pixel*Frame) : 0.144

  37. Stream size : 6.08 GiB (41%)

  38. Writing library : x264 core 148 r2727 7d026e8

  39. Encoding settings : cabac=1 / ref=4 / deblock=1:0:0 / analyse=0x3:0x111 / me=umh / subme=10 / psy=1 / psy_rd=1.00:0.00 / mixed_ref=1 / me_range=120 / chroma_me=1 / trellis=2 / 8x8dct=1 / cqm=0 / deadzone=21,11 / fast_pskip=1 / chroma_qp_offset=-2 / threads=8 / lookahead_threads=2 / sliced_threads=0 / nr=0 / decimate=1 / interlaced=0 / NTMzNTQ= / bluray_compat=0 / stitchable=1 / constrained_intra=0 / bframes=16 / b_pyramid=2 / b_adapt=2 / b_bias=0 / direct=3 / weightb=1 / open_gop=0 / weightp=2 / keyint=240 / keyint_min=121 / scenecut=0 / intra_refresh=0 / rc_lookahead=240 / rc=crf / mbtree=1 / crf=16.0 / qcomp=0.50 / qpmin=6 / qpmax=51 / qpstep=4 / vbv_maxrate=20000 / vbv_bufsize=25000 / crf_max=0.0 / nal_hrd=vbr / filler=0 / NTMzNTQ=LmsMAP37EqsCpk / ip_ratio=1.40 / aq=1:0.80

  40. Default : Yes

  41. Forced : No


  42. Audio #1

  43. ID : 2

  44. Format : E-AC-3 JOC

  45. Format/Info : Enhanced AC-3 with Joint Object Coding

  46. Commercial name : Dolby Digital Plus with Dolby Atmos

  47. Codec ID : A_EAC3

  48. Duration : 2 h 1 min

  49. Bit rate mode : Constant

  50. Bit rate : 768 kb/s

  51. Channel(s) : 6 channels

  52. Channel layout : L R C LFE Ls Rs

  53. Sampling rate : 48.0 kHz

  54. Frame rate : 31.250 FPS (1536 SPF)

  55. Compression mode : Lossy

  56. Stream size : 668 MiB (4%)

  57. Title : English

  58. Language : English

  59. Service kind : Complete Main

  60. Default : Yes

  61. Forced : No

  62. Complexity index : 16

  63. Number of dynamic objects : 15

  64. Bed channel count : 1 channel

  65. Bed channel configuration : LFE


  66. Audio #2

  67. ID : 3

  68. Format : E-AC-3

  69. Format/Info : Enhanced AC-3

  70. Commercial name : Dolby Digital Plus

  71. Codec ID : A_EAC3

  72. Duration : 2 h 1 min

  73. Bit rate mode : Constant

  74. Bit rate : 640 kb/s

  75. Channel(s) : 6 channels

  76. Channel layout : L R C LFE Ls Rs

  77. Sampling rate : 48.0 kHz

  78. Frame rate : 31.250 FPS (1536 SPF)

  79. Compression mode : Lossy

  80. Stream size : 557 MiB (4%)

  81. Title : Czech

  82. Language : Czech

  83. Service kind : Complete Main

  84. Default : No

  85. Forced : No


  86. Audio #3

  87. ID : 4

  88. Format : E-AC-3

  89. Format/Info : Enhanced AC-3

  90. Commercial name : Dolby Digital Plus

  91. Codec ID : A_EAC3

  92. Duration : 2 h 1 min

  93. Bit rate mode : Constant

  94. Bit rate : 640 kb/s

  95. Channel(s) : 6 channels

  96. Channel layout : L R C LFE Ls Rs

  97. Sampling rate : 48.0 kHz

  98. Frame rate : 31.250 FPS (1536 SPF)

  99. Compression mode : Lossy

  100. Stream size : 557 MiB (4%)

  101. Title : French

  102. Language : French

  103. Service kind : Complete Main

  104. Default : No

  105. Forced : No


  106. Audio #4

  107. ID : 5

  108. Format : E-AC-3

  109. Format/Info : Enhanced AC-3

  110. Commercial name : Dolby Digital Plus

  111. Codec ID : A_EAC3

  112. Duration : 2 h 1 min

  113. Bit rate mode : Constant

  114. Bit rate : 640 kb/s

  115. Channel(s) : 6 channels

  116. Channel layout : L R C LFE Ls Rs

  117. Sampling rate : 48.0 kHz

  118. Frame rate : 31.250 FPS (1536 SPF)

  119. Compression mode : Lossy

  120. Stream size : 557 MiB (4%)

  121. Title : German

  122. Language : German

  123. Service kind : Complete Main

  124. Default : No

  125. Forced : No


  126. Audio #5

  127. ID : 6

  128. Format : E-AC-3

  129. Format/Info : Enhanced AC-3

  130. Commercial name : Dolby Digital Plus

  131. Codec ID : A_EAC3

  132. Duration : 2 h 1 min

  133. Bit rate mode : Constant

  134. Bit rate : 640 kb/s

  135. Channel(s) : 6 channels

  136. Channel layout : L R C LFE Ls Rs

  137. Sampling rate : 48.0 kHz

  138. Frame rate : 31.250 FPS (1536 SPF)

  139. Compression mode : Lossy

  140. Stream size : 557 MiB (4%)

  141. Title : Hindi

  142. Language : Hindi

  143. Service kind : Complete Main

  144. Default : No

  145. Forced : No


  146. Audio #6

  147. ID : 7

  148. Format : E-AC-3

  149. Format/Info : Enhanced AC-3

  150. Commercial name : Dolby Digital Plus

  151. Codec ID : A_EAC3

  152. Duration : 2 h 1 min

  153. Bit rate mode : Constant

  154. Bit rate : 640 kb/s

  155. Channel(s) : 6 channels

  156. Channel layout : L R C LFE Ls Rs

  157. Sampling rate : 48.0 kHz

  158. Frame rate : 31.250 FPS (1536 SPF)

  159. Compression mode : Lossy

  160. Stream size : 557 MiB (4%)

  161. Title : Hungarian

  162. Language : Hungarian

  163. Service kind : Complete Main

  164. Default : No

  165. Forced : No


  166. Audio #7

  167. ID : 8

  168. Format : E-AC-3

  169. Format/Info : Enhanced AC-3

  170. Commercial name : Dolby Digital Plus

  171. Codec ID : A_EAC3

  172. Duration : 2 h 1 min

  173. Bit rate mode : Constant

  174. Bit rate : 640 kb/s

  175. Channel(s) : 6 channels

  176. Channel layout : L R C LFE Ls Rs

  177. Sampling rate : 48.0 kHz

  178. Frame rate : 31.250 FPS (1536 SPF)

  179. Compression mode : Lossy

  180. Stream size : 557 MiB (4%)

  181. Title : Italian

  182. Language : Italian

  183. Service kind : Complete Main

  184. Default : No

  185. Forced : No


  186. Audio #8

  187. ID : 9

  188. Format : E-AC-3

  189. Format/Info : Enhanced AC-3

  190. Commercial name : Dolby Digital Plus

  191. Codec ID : A_EAC3

  192. Duration : 2 h 1 min

  193. Bit rate mode : Constant

  194. Bit rate : 640 kb/s

  195. Channel(s) : 6 channels

  196. Channel layout : L R C LFE Ls Rs

  197. Sampling rate : 48.0 kHz

  198. Frame rate : 31.250 FPS (1536 SPF)

  199. Compression mode : Lossy

  200. Stream size : 557 MiB (4%)

  201. Title : Japanese

  202. Language : Japanese

  203. Service kind : Complete Main

  204. Default : No

  205. Forced : No


  206. Audio #9

  207. ID : 10

  208. Format : E-AC-3

  209. Format/Info : Enhanced AC-3

  210. Commercial name : Dolby Digital Plus

  211. Codec ID : A_EAC3

  212. Duration : 2 h 1 min

  213. Bit rate mode : Constant

  214. Bit rate : 640 kb/s

  215. Channel(s) : 6 channels

  216. Channel layout : L R C LFE Ls Rs

  217. Sampling rate : 48.0 kHz

  218. Frame rate : 31.250 FPS (1536 SPF)

  219. Compression mode : Lossy

  220. Stream size : 557 MiB (4%)

  221. Title : Polish

  222. Language : Polish

  223. Service kind : Complete Main

  224. Default : No

  225. Forced : No


  226. Audio #10

  227. ID : 11

  228. Format : E-AC-3

  229. Format/Info : Enhanced AC-3

  230. Commercial name : Dolby Digital Plus

  231. Codec ID : A_EAC3

  232. Duration : 2 h 1 min

  233. Bit rate mode : Constant

  234. Bit rate : 640 kb/s

  235. Channel(s) : 6 channels

  236. Channel layout : L R C LFE Ls Rs

  237. Sampling rate : 48.0 kHz

  238. Frame rate : 31.250 FPS (1536 SPF)

  239. Compression mode : Lossy

  240. Stream size : 557 MiB (4%)

  241. Title : Portuguese

  242. Language : Portuguese

  243. Service kind : Complete Main

  244. Default : No

  245. Forced : No


  246. Audio #11

  247. ID : 12

  248. Format : E-AC-3

  249. Format/Info : Enhanced AC-3

  250. Commercial name : Dolby Digital Plus

  251. Codec ID : A_EAC3

  252. Duration : 2 h 1 min

  253. Bit rate mode : Constant

  254. Bit rate : 640 kb/s

  255. Channel(s) : 6 channels

  256. Channel layout : L R C LFE Ls Rs

  257. Sampling rate : 48.0 kHz

  258. Frame rate : 31.250 FPS (1536 SPF)

  259. Compression mode : Lossy

  260. Stream size : 557 MiB (4%)

  261. Title : Brazilian Portuguese

  262. Language : Portuguese

  263. Service kind : Complete Main

  264. Default : No

  265. Forced : No


  266. Audio #12

  267. ID : 13

  268. Format : E-AC-3

  269. Format/Info : Enhanced AC-3

  270. Commercial name : Dolby Digital Plus

  271. Codec ID : A_EAC3

  272. Duration : 2 h 1 min

  273. Bit rate mode : Constant

  274. Bit rate : 640 kb/s

  275. Channel(s) : 6 channels

  276. Channel layout : L R C LFE Ls Rs

  277. Sampling rate : 48.0 kHz

  278. Frame rate : 31.250 FPS (1536 SPF)

  279. Compression mode : Lossy

  280. Stream size : 557 MiB (4%)

  281. Title : Russian

  282. Language : Russian

  283. Service kind : Complete Main

  284. Default : No

  285. Forced : No


  286. Audio #13

  287. ID : 14

  288. Format : E-AC-3

  289. Format/Info : Enhanced AC-3

  290. Commercial name : Dolby Digital Plus

  291. Codec ID : A_EAC3

  292. Duration : 2 h 1 min

  293. Bit rate mode : Constant

  294. Bit rate : 640 kb/s

  295. Channel(s) : 6 channels

  296. Channel layout : L R C LFE Ls Rs

  297. Sampling rate : 48.0 kHz

  298. Frame rate : 31.250 FPS (1536 SPF)

  299. Compression mode : Lossy

  300. Stream size : 557 MiB (4%)

  301. Title : Spanish

  302. Language : Spanish

  303. Service kind : Complete Main

  304. Default : No

  305. Forced : No


  306. Audio #14

  307. ID : 15

  308. Format : E-AC-3

  309. Format/Info : Enhanced AC-3

  310. Commercial name : Dolby Digital Plus

  311. Codec ID : A_EAC3

  312. Duration : 2 h 1 min

  313. Bit rate mode : Constant

  314. Bit rate : 640 kb/s

  315. Channel(s) : 6 channels

  316. Channel layout : L R C LFE Ls Rs

  317. Sampling rate : 48.0 kHz

  318. Frame rate : 31.250 FPS (1536 SPF)

  319. Compression mode : Lossy

  320. Stream size : 557 MiB (4%)

  321. Title : European Spanish

  322. Language : Spanish

  323. Service kind : Complete Main

  324. Default : No

  325. Forced : No


  326. Audio #15

  327. ID : 16

  328. Format : E-AC-3

  329. Format/Info : Enhanced AC-3

  330. Commercial name : Dolby Digital Plus

  331. Codec ID : A_EAC3

  332. Duration : 2 h 1 min

  333. Bit rate mode : Constant

  334. Bit rate : 640 kb/s

  335. Channel(s) : 6 channels

  336. Channel layout : L R C LFE Ls Rs

  337. Sampling rate : 48.0 kHz

  338. Frame rate : 31.250 FPS (1536 SPF)

  339. Compression mode : Lossy

  340. Stream size : 557 MiB (4%)

  341. Title : Thai

  342. Language : Thai

  343. Service kind : Complete Main

  344. Default : No

  345. Forced : No


  346. Audio #16

  347. ID : 17

  348. Format : E-AC-3

  349. Format/Info : Enhanced AC-3

  350. Commercial name : Dolby Digital Plus

  351. Codec ID : A_EAC3

  352. Duration : 2 h 1 min

  353. Bit rate mode : Constant

  354. Bit rate : 640 kb/s

  355. Channel(s) : 6 channels

  356. Channel layout : L R C LFE Ls Rs

  357. Sampling rate : 48.0 kHz

  358. Frame rate : 31.250 FPS (1536 SPF)

  359. Compression mode : Lossy

  360. Stream size : 557 MiB (4%)

  361. Title : Turkish

  362. Language : Turkish

  363. Service kind : Complete Main

  364. Default : No

  365. Forced : No


  366. Text #1

  367. ID : 18

  368. Format : UTF-8

  369. Codec ID : S_TEXT/UTF8

  370. Codec ID/Info : UTF-8 Plain Text

  371. Duration : 1 h 57 min

  372. Bit rate : 107 b/s

  373. Count of elements : 1948

  374. Stream size : 92.7 KiB (0%)

  375. Title : English

  376. Language : English

  377. Default : Yes

  378. Forced : No


  379. Text #2

  380. ID : 19

  381. Format : UTF-8

  382. Codec ID : S_TEXT/UTF8

  383. Codec ID/Info : UTF-8 Plain Text

  384. Duration : 1 h 58 min

  385. Bit rate : 107 b/s

  386. Count of elements : 1620

  387. Stream size : 93.5 KiB (0%)

  388. Title : Arabic

  389. Language : Arabic

  390. Default : No

  391. Forced : No


  392. Text #3

  393. ID : 20

  394. Format : UTF-8

  395. Codec ID : S_TEXT/UTF8

  396. Codec ID/Info : UTF-8 Plain Text

  397. Duration : 1 h 58 min

  398. Bit rate : 62 b/s

  399. Count of elements : 1604

  400. Stream size : 54.1 KiB (0%)

  401. Title : Chinese Simplified

  402. Language : Chinese

  403. Default : No

  404. Forced : No


  405. Text #4

  406. ID : 21

  407. Format : UTF-8

  408. Codec ID : S_TEXT/UTF8

  409. Codec ID/Info : UTF-8 Plain Text

  410. Duration : 1 h 58 min

  411. Bit rate : 58 b/s

  412. Count of elements : 1610

  413. Stream size : 51.3 KiB (0%)

  414. Title : Chinese Traditional

  415. Language : Chinese

  416. Default : No

  417. Forced : No


  418. Text #5

  419. ID : 22

  420. Format : UTF-8

  421. Codec ID : S_TEXT/UTF8

  422. Codec ID/Info : UTF-8 Plain Text

  423. Duration : 1 h 58 min

  424. Bit rate : 66 b/s

  425. Count of elements : 1635

  426. Stream size : 58.2 KiB (0%)

  427. Title : Croatian

  428. Language : Croatian

  429. Default : No

  430. Forced : No


  431. Text #6

  432. ID : 23

  433. Format : UTF-8

  434. Codec ID : S_TEXT/UTF8

  435. Codec ID/Info : UTF-8 Plain Text

  436. Duration : 1 h 58 min

  437. Bit rate : 68 b/s

  438. Count of elements : 1592

  439. Stream size : 59.6 KiB (0%)

  440. Title : Czech

  441. Language : Czech

  442. Default : No

  443. Forced : No


  444. Text #7

  445. ID : 24

  446. Format : UTF-8

  447. Codec ID : S_TEXT/UTF8

  448. Codec ID/Info : UTF-8 Plain Text

  449. Duration : 1 h 58 min

  450. Bit rate : 60 b/s

  451. Count of elements : 1356

  452. Stream size : 52.8 KiB (0%)

  453. Title : Danish

  454. Language : Danish

  455. Default : No

  456. Forced : No


  457. Text #8

  458. ID : 25

  459. Format : UTF-8

  460. Codec ID : S_TEXT/UTF8

  461. Codec ID/Info : UTF-8 Plain Text

  462. Duration : 1 h 58 min

  463. Bit rate : 61 b/s

  464. Count of elements : 1313

  465. Stream size : 53.6 KiB (0%)

  466. Title : Dutch

  467. Language : Dutch

  468. Default : No

  469. Forced : No


  470. Text #9

  471. ID : 26

  472. Format : UTF-8

  473. Codec ID : S_TEXT/UTF8

  474. Codec ID/Info : UTF-8 Plain Text

  475. Duration : 1 h 58 min

  476. Bit rate : 69 b/s

  477. Count of elements : 1580

  478. Stream size : 60.3 KiB (0%)

  479. Title : Finnish

  480. Language : Finnish

  481. Default : No

  482. Forced : No


  483. Text #10

  484. ID : 27

  485. Format : UTF-8

  486. Codec ID : S_TEXT/UTF8

  487. Codec ID/Info : UTF-8 Plain Text

  488. Duration : 1 h 58 min

  489. Bit rate : 68 b/s

  490. Count of elements : 1554

  491. Stream size : 59.3 KiB (0%)

  492. Title : French

  493. Language : French

  494. Default : No

  495. Forced : No


  496. Text #11

  497. ID : 28

  498. Format : UTF-8

  499. Codec ID : S_TEXT/UTF8

  500. Codec ID/Info : UTF-8 Plain Text

  501. Duration : 1 h 58 min

  502. Bit rate : 69 b/s

  503. Count of elements : 1616

  504. Stream size : 60.2 KiB (0%)

  505. Title : German

  506. Language : German

  507. Default : No

  508. Forced : No


  509. Text #12

  510. ID : 29

  511. Format : UTF-8

  512. Codec ID : S_TEXT/UTF8

  513. Codec ID/Info : UTF-8 Plain Text

  514. Duration : 1 h 58 min

  515. Bit rate : 115 b/s

  516. Count of elements : 1626

  517. Stream size : 101 KiB (0%)

  518. Title : Greek

  519. Language : Greek

  520. Default : No

  521. Forced : No


  522. Text #13

  523. ID : 30

  524. Format : UTF-8

  525. Codec ID : S_TEXT/UTF8

  526. Codec ID/Info : UTF-8 Plain Text

  527. Duration : 1 h 58 min

  528. Bit rate : 94 b/s

  529. Count of elements : 1605

  530. Stream size : 81.9 KiB (0%)

  531. Title : Hebrew

  532. Language : Hebrew

  533. Default : No

  534. Forced : No


  535. Text #14

  536. ID : 31

  537. Format : UTF-8

  538. Codec ID : S_TEXT/UTF8

  539. Codec ID/Info : UTF-8 Plain Text

  540. Duration : 1 h 58 min

  541. Bit rate : 65 b/s

  542. Count of elements : 1596

  543. Stream size : 57.4 KiB (0%)

  544. Title : Hungarian

  545. Language : Hungarian

  546. Default : No

  547. Forced : No


  548. Text #15

  549. ID : 32

  550. Format : UTF-8

  551. Codec ID : S_TEXT/UTF8

  552. Codec ID/Info : UTF-8 Plain Text

  553. Duration : 1 h 58 min

  554. Bit rate : 67 b/s

  555. Count of elements : 1610

  556. Stream size : 58.5 KiB (0%)

  557. Title : Indonesian

  558. Language : Indonesian

  559. Default : No

  560. Forced : No


  561. Text #16

  562. ID : 33

  563. Format : UTF-8

  564. Codec ID : S_TEXT/UTF8

  565. Codec ID/Info : UTF-8 Plain Text

  566. Duration : 1 h 58 min

  567. Bit rate : 69 b/s

  568. Count of elements : 1608

  569. Stream size : 60.8 KiB (0%)

  570. Title : Italian

  571. Language : Italian

  572. Default : No

  573. Forced : No


  574. Text #17

  575. ID : 34

  576. Format : UTF-8

  577. Codec ID : S_TEXT/UTF8

  578. Codec ID/Info : UTF-8 Plain Text

  579. Duration : 1 h 58 min

  580. Bit rate : 63 b/s

  581. Count of elements : 1743

  582. Stream size : 55.3 KiB (0%)

  583. Title : Japanese

  584. Language : Japanese

  585. Default : No

  586. Forced : No


  587. Text #18

  588. ID : 35

  589. Format : UTF-8

  590. Codec ID : S_TEXT/UTF8

  591. Codec ID/Info : UTF-8 Plain Text

  592. Duration : 1 h 49 min

  593. Bit rate : 73 b/s

  594. Count of elements : 1652

  595. Stream size : 58.9 KiB (0%)

  596. Title : Korean

  597. Language : Korean

  598. Default : No

  599. Forced : No


  600. Text #19

  601. ID : 36

  602. Format : UTF-8

  603. Codec ID : S_TEXT/UTF8

  604. Codec ID/Info : UTF-8 Plain Text

  605. Duration : 1 h 49 min

  606. Bit rate : 73 b/s

  607. Count of elements : 1607

  608. Stream size : 58.6 KiB (0%)

  609. Title : Malay

  610. Language : Malay

  611. Default : No

  612. Forced : No


  613. Text #20

  614. ID : 37

  615. Format : UTF-8

  616. Codec ID : S_TEXT/UTF8

  617. Codec ID/Info : UTF-8 Plain Text

  618. Duration : 1 h 58 min

  619. Bit rate : 58 b/s

  620. Count of elements : 1472

  621. Stream size : 50.5 KiB (0%)

  622. Title : Norwegian Bokmal

  623. Language : Norwegian Bokmal

  624. Default : No

  625. Forced : No


  626. Text #21

  627. ID : 38

  628. Format : UTF-8

  629. Codec ID : S_TEXT/UTF8

  630. Codec ID/Info : UTF-8 Plain Text

  631. Duration : 1 h 58 min

  632. Bit rate : 59 b/s

  633. Count of elements : 1569

  634. Stream size : 51.4 KiB (0%)

  635. Title : Polish

  636. Language : Polish

  637. Default : No

  638. Forced : No


  639. Text #22

  640. ID : 39

  641. Format : UTF-8

  642. Codec ID : S_TEXT/UTF8

  643. Codec ID/Info : UTF-8 Plain Text

  644. Duration : 1 h 58 min

  645. Bit rate : 69 b/s

  646. Count of elements : 1604

  647. Stream size : 60.3 KiB (0%)

  648. Title : Portuguese

  649. Language : Portuguese

  650. Default : No

  651. Forced : No


  652. Text #23

  653. ID : 40

  654. Format : UTF-8

  655. Codec ID : S_TEXT/UTF8

  656. Codec ID/Info : UTF-8 Plain Text

  657. Duration : 1 h 58 min

  658. Bit rate : 69 b/s

  659. Count of elements : 1610

  660. Stream size : 60.6 KiB (0%)

  661. Title : Brazilian Portuguese

  662. Language : Portuguese

  663. Default : No

  664. Forced : No


  665. Text #24

  666. ID : 41

  667. Format : UTF-8

  668. Codec ID : S_TEXT/UTF8

  669. Codec ID/Info : UTF-8 Plain Text

  670. Duration : 1 h 58 min

  671. Bit rate : 77 b/s

  672. Count of elements : 1607

  673. Stream size : 67.5 KiB (0%)

  674. Title : Romanian

  675. Language : Romanian

  676. Default : No

  677. Forced : No


  678. Text #25

  679. ID : 42

  680. Format : UTF-8

  681. Codec ID : S_TEXT/UTF8

  682. Codec ID/Info : UTF-8 Plain Text

  683. Duration : 1 h 58 min

  684. Bit rate : 110 b/s

  685. Count of elements : 1635

  686. Stream size : 95.9 KiB (0%)

  687. Title : Russian

  688. Language : Russian

  689. Default : No

  690. Forced : No


  691. Text #26

  692. ID : 43

  693. Format : UTF-8

  694. Codec ID : S_TEXT/UTF8

  695. Codec ID/Info : UTF-8 Plain Text

  696. Duration : 1 h 58 min

  697. Bit rate : 65 b/s

  698. Count of elements : 1614

  699. Stream size : 57.0 KiB (0%)

  700. Title : Spanish

  701. Language : Spanish

  702. Default : No

  703. Forced : No


  704. Text #27

  705. ID : 44

  706. Format : UTF-8

  707. Codec ID : S_TEXT/UTF8

  708. Codec ID/Info : UTF-8 Plain Text

  709. Duration : 1 h 58 min

  710. Bit rate : 69 b/s

  711. Count of elements : 1593

  712. Stream size : 60.6 KiB (0%)

  713. Title : European Spanish

  714. Language : Spanish

  715. Default : No

  716. Forced : No


  717. Text #28

  718. ID : 45

  719. Format : UTF-8

  720. Codec ID : S_TEXT/UTF8

  721. Codec ID/Info : UTF-8 Plain Text

  722. Duration : 1 h 58 min

  723. Bit rate : 58 b/s

  724. Count of elements : 1415

  725. Stream size : 51.2 KiB (0%)

  726. Title : Swedish

  727. Language : Swedish

  728. Default : No

  729. Forced : No


  730. Text #29

  731. ID : 46

  732. Format : UTF-8

  733. Codec ID : S_TEXT/UTF8

  734. Codec ID/Info : UTF-8 Plain Text

  735. Duration : 1 h 49 min

  736. Bit rate : 158 b/s

  737. Count of elements : 1611

  738. Stream size : 127 KiB (0%)

  739. Title : Thai

  740. Language : Thai

  741. Default : No

  742. Forced : No


  743. Text #30

  744. ID : 47

  745. Format : UTF-8

  746. Codec ID : S_TEXT/UTF8

  747. Codec ID/Info : UTF-8 Plain Text

  748. Duration : 1 h 58 min

  749. Bit rate : 67 b/s

  750. Count of elements : 1606

  751. Stream size : 58.8 KiB (0%)

  752. Title : Turkish

  753. Language : Turkish

  754. Default : No

  755. Forced : No


  756. Text #31

  757. ID : 48

  758. Format : UTF-8

  759. Codec ID : S_TEXT/UTF8

  760. Codec ID/Info : UTF-8 Plain Text

  761. Duration : 1 h 58 min

  762. Bit rate : 104 b/s

  763. Count of elements : 1591

  764. Stream size : 90.7 KiB (0%)

  765. Title : Ukrainian

  766. Language : Ukrainian

  767. Default : No

  768. Forced : No


  769. Text #32

  770. ID : 49

  771. Format : UTF-8

  772. Codec ID : S_TEXT/UTF8

  773. Codec ID/Info : UTF-8 Plain Text

  774. Duration : 1 h 58 min

  775. Bit rate : 99 b/s

  776. Count of elements : 1625

  777. Stream size : 86.7 KiB (0%)

  778. Title : Vietnamese

  779. Language : Vietnamese

  780. Default : No

  781. Forced : No




复制代码



文件下载


除非特别注明,本文『倒数时刻[中文字幕].Tick.Tick.BOOM!.2021.1080p.NF.WEB-DL.DDP5.1.Atmos.x264-bt9527.cc 14.90GB』来源于互联网机器人自动抓取,非本站原创。 浮游电影网不对本文拥有版权,如有侵犯,请联系邮箱:fuyouu#yandex.com[#换成@]投诉。我们会在15个工作日内删除。 但烦请转载时请标明出处:“本文转载于『浮游电影网』,原文地址:https://www.fuyouu.com/18940.html

评论吧骚年!

发表你的见解   

昵称*

E-mail*(建议输入,以便收到博主回复的提示邮件)

验证码*

您可以使用eMule或eMule Mod(Windows)、aMule(Win、Linux、Mac)等软件下载eD2k链接。。
eMule收藏集(.emulecollection)文件是您选中的所有链接的列表文件。eMule可以直接下载它们。
按住SHIFT键选择可以选中多个选择框。
可用文件名和大小选择器来选择文件。
文件名选择器帮您根据文件名称或后缀来选择文件。不分大小写。
符号使用:
和:空格( )、+
不包含:-
或:|
转义:一对英文引号("");
匹配开头:^
匹配结尾:$
例如:
选中所有名称中包含有“eMule”或“0.49c”字眼,但不包含有“exe”字眼的:emule|0.49c -exe
选中所有名称的开头是“eMule”,结尾是“0.49c”的:^emule 0.49c$
选中所有名称中带有“eMule 0.49c”的(必须是“eMule 0.49c”,中间没有别的字符,不能是“eMule fake 0.49c”),需要转义:"emule 0.49c"
大小选择器帮您根据文件大小选择文件。