当前位置: 首页 >> 欧美电影 >> 我为钱狂[中文字幕].Mad.Money.2008.1080p.BluRay.DD5.1.x265-10bit-bt9527.cc 8.90GB >> 正文

我为钱狂[中文字幕].Mad.Money.2008.1080p.BluRay.DD5.1.x265-10bit-bt9527.cc 8.90GB

2021年11月22日 08:35:26     电影发布:来源于网络     电影分类:欧美电影     评论(0)    

我为钱狂[中文字幕].Mad.Money.2008.1080p.BluRay.DD5.1.x265 10bit bt9527.cc 8.90GB 犯罪片 惊悚片 喜剧片 欧美电影  第1张

◎译 名 我为钱狂 / 有钱真好

◎片 名 Mad Money

◎年 代 2008

◎产 地 美国

◎类 别 喜剧 / 惊悚 / 犯罪

◎语 言 英语

◎上映日期 2008-01-18

◎IMDb链接 https://www.imdb.com/title/tt0951216/

◎豆瓣评分 6.8/10 (4845人评价)

◎豆瓣链接 https://movie.douban.com/subject/2123052/

◎片 长 104 分钟

◎导 演 卡莉·克里 Callie Khouri (id:1036971)

◎编 剧 格伦·杰斯 Glenn Gers (id:1302467)

尼尔·麦凯 Neil McKay (id:1291646)

◎演 员 黛安·基顿 Diane Keaton (id:1053568)

特德·丹森 Ted Danson (id:1013834)

凯蒂·霍尔姆斯 Katie Holmes (id:1053558)

奎恩·拉提法 Queen Latifah (id:1031870)

达塞尔·怀特·莫雷诺 Darcel White Moreno (id:1233346)

Maliek Golden (id:1237351)

比尔·斯汀奇康布 Bill Stinchcomb (id:1226164)

Travis Fontenot (id:1234970)

Sterling Blackmon Sterling Blackmon (id:1207715)

德鲁·沃特斯 Drew Waters (id:1185002)

迈克尔·P·弗莱尼根 Michael P. Flannigan (id:1006074)

斯蒂芬·鲁特 Stephen Root (id:1041136)

罗杰·R.克劳斯 Roger R. Cross (id:1055522)

克里斯托弗·麦克唐纳 Christopher McDonald (id:1055787)

马克·麦考利 Marc Macaulay (id:1116920)

菲尼斯·米切尔 Finesse Mitchell (id:1179992)

Bryan McMahon Bryan McMahon (id:1180468)

克雷·钱柏林 Clay Chamberlin (id:1184461)

吉姆·克莱默 Jim Cramer (id:1222687)

博兹·大卫逊 Boaz Davidson (id:1040974)

Frank DeMartini Frank DeMartini (id:1033374)

艾威·勒纳 Avi Lerner (id:1027972)

迈克尔·P·弗莱尼根 Michael P. Flannigan (id:1006074)

詹姆斯·纽顿·霍华德 James Newton Howard (id:1019135)

Martin Davich Martin Davich (id:1281853)

约翰·贝利 John Bailey (id:1055661)

Wendy Greene Bricmont Wendy Greene Bricmont (id:1279288)

Junie Lowry-Johnson Junie Lowry-Johnson (id:1290388)

苏·德萨图 Susie DeSanto (id:1282289)

Fríea Aradóttir Fríea Aradóttir (id:1057946)

Kimberly Amacker (id:1226597)

Krystal Kershaw (id:1253537)

Nanci Cascio Nanci Cascio (id:1197685)

Michelle Vittone Michelle Vittone (id:1300143)

Isaac Meisenheimer Isaac Meisenheimer (id:1190345)

博兹·大卫逊 Boaz Davidson (id:1040974)

David Van Woert David Van Woert (id:1053127)

◎标 签 喜剧 / 美国 / 犯罪 / 美国电影 / 2008 / 电影 / money / 我看过的电影

◎简 介

布里奇特(黛安·基顿 Diane Keaton 饰)是一个普通的家庭主妇,居住在一间位于郊区的大房子里,丈夫那份薪水不菲的工作足以让她的生活衣食无忧。然而就在一瞬间,美好的生活化为了泡影,丈夫丢了工作,他们不仅即将失去舒适的住宅,布里奇特还不得不为了养家糊口而踏出家门寻找工作。来到人才市场,布里奇特才发现,在这个年头想要赚钱是这样的困难,在繁多的工作岗位之中,自己的古英语学位形同虚设。无奈之下,她成为了美国联邦储备银行的清洁工。

在工作中,布里奇特结识了单身妈妈妮娜(奎恩·拉提法 Queen Latifah 饰)和充满个性的杰姬(凯蒂·霍尔姆斯 Katie Holmes 饰)。每天面对着成捆的钞票,三个被贫穷逼迫的走投无路的女人打起了歪主意。

  1. ##### MediaInfo ######

  2. General

  3. Unique ID : 165544872649138977235336965987826356744 (0x7C8AC8617BAFBC89569DFED411335208)

  4. Complete name : [email protected]v

  5. Format : Matroska

  6. Format version : Version 4

  7. File size : 8.90 GiB

  8. Duration : 1 h 44 min

  9. Overall bit rate : 12.3 Mb/s

  10. Movie name : Mad Money 2008 1080p BluRay DD5.1 [email protected]

  11. Encoded date : UTC 2021-11-20 23:43:58

  12. Writing application : mkvmerge v38.0.0 ('The Silent Type') 64-bit

  13. Writing library : libebml v1.3.9 + libmatroska v1.5.2


  14. Video

  15. ID : 1

  16. Format : HEVC

  17. Format/Info : High Efficiency Video Coding

  18. Format profile : Main [email protected]@High

  19. Codec ID : V_MPEGH/ISO/HEVC

  20. Duration : 1 h 44 min

  21. Bit rate : 11.6 Mb/s

  22. Width : 1 920 pixels

  23. Height : 796 pixels

  24. Display aspect ratio : 2.40:1

  25. Frame rate mode : Constant

  26. Frame rate : 23.976 (24000/1001/53354) FPS

  27. Color space : YUV

  28. Chroma subsampling : 4:2:0

  29. Bit depth : 10 bits

  30. Bits/(Pixel*Frame) : 0.316

  31. Stream size : 8.42 GiB (95%)

  32. Title : @HDSky

  33. Writing library : x265 - H.265/HEVC codec

  34. Default : Yes

  35. Forced : No


  36. Audio

  37. ID : 2

  38. Format : AC-3

  39. Format/Info : Audio Coding 3

  40. Commercial name : Dolby Digital

  41. Codec ID : A_AC3

  42. Duration : 1 h 44 min

  43. Bit rate mode : Constant

  44. Bit rate : 640 kb/s

  45. Channel(s) : 6 channels

  46. Channel layout : L R C LFE Ls Rs

  47. Sampling rate : 48.0 kHz

  48. Frame rate : 31.250 FPS (1536 SPF)

  49. Compression mode : Lossy

  50. Stream size : 476 MiB (5%)

  51. Title : English

  52. Language : English

  53. Service kind : Complete Main

  54. Default : Yes

  55. Forced : No


  56. Text #1

  57. ID : 3

  58. Format : PGS

  59. Muxing mode : zlib

  60. Codec ID : S_HDMV/PGS

  61. Codec ID/Info : Picture based subtitle format used on BDs/HD-DVDs

  62. Duration : 1 h 36 min

  63. Bit rate : 27.7 kb/s

  64. Count of elements : 2032

  65. Stream size : 19.2 MiB (0%)

  66. Title : CHS

  67. Language : Chinese

  68. Default : Yes

  69. Forced : No


  70. Text #2

  71. ID : 4

  72. Format : PGS

  73. Muxing mode : zlib

  74. Codec ID : S_HDMV/PGS

  75. Codec ID/Info : Picture based subtitle format used on BDs/HD-DVDs

  76. Duration : 1 h 36 min

  77. Bit rate : 28.1 kb/s

  78. Count of elements : 2032

  79. Stream size : 19.4 MiB (0%)

  80. Title : CHT

  81. Language : Chinese

  82. Default : No

  83. Forced : No


  84. Menu

  85. 00:00:00.000 : en:Chapter 01

  86. 00:04:37.235 : en:Chapter 02

  87. 00:08:51.406 : en:Chapter 03

  88. 00:13:24.512 : en:Chapter 04

  89. 00:19:53.192 : en:Chapter 05

  90. 00:25:08.382 : en:Chapter 06

  91. 00:30:08.724 : en:Chapter 07

  92. 00:35:09.357 : en:Chapter 08

  93. 00:41:30.154 : en:Chapter 09

  94. 00:44:37.258 : en:Chapter 10

  95. 00:50:52.675 : en:Chapter 11

  96. 00:55:26.114 : en:Chapter 12

  97. 00:58:55.532 : en:Chapter 13

  98. 01:05:58.955 : en:Chapter 14

  99. 01:10:33.688 : en:Chapter 15

  100. 01:16:56.320 : en:Chapter 16

  101. 01:21:24.963 : en:Chapter 17

  102. 01:25:13.025 : en:Chapter 18

  103. 01:30:44.814 : en:Chapter 19

  104. 01:34:21.781 : en:Chapter 20




复制代码





文件下载


除非特别注明,本文『我为钱狂[中文字幕].Mad.Money.2008.1080p.BluRay.DD5.1.x265-10bit-bt9527.cc 8.90GB』来源于互联网机器人自动抓取,非本站原创。 浮游电影网不对本文拥有版权,如有侵犯,请联系邮箱:fuyouu#yandex.com[#换成@]投诉。我们会在15个工作日内删除。 但烦请转载时请标明出处:“本文转载于『浮游电影网』,原文地址:https://www.fuyouu.com/18938.html

评论吧骚年!

发表你的见解   

昵称*

E-mail*(建议输入,以便收到博主回复的提示邮件)

验证码*

您可以使用eMule或eMule Mod(Windows)、aMule(Win、Linux、Mac)等软件下载eD2k链接。。
eMule收藏集(.emulecollection)文件是您选中的所有链接的列表文件。eMule可以直接下载它们。
按住SHIFT键选择可以选中多个选择框。
可用文件名和大小选择器来选择文件。
文件名选择器帮您根据文件名称或后缀来选择文件。不分大小写。
符号使用:
和:空格( )、+
不包含:-
或:|
转义:一对英文引号("");
匹配开头:^
匹配结尾:$
例如:
选中所有名称中包含有“eMule”或“0.49c”字眼,但不包含有“exe”字眼的:emule|0.49c -exe
选中所有名称的开头是“eMule”,结尾是“0.49c”的:^emule 0.49c$
选中所有名称中带有“eMule 0.49c”的(必须是“eMule 0.49c”,中间没有别的字符,不能是“eMule fake 0.49c”),需要转义:"emule 0.49c"
大小选择器帮您根据文件大小选择文件。