当前位置: 首页 >> 海外电影 >> 钢铁苍穹[简繁字幕].Iron.Sky.2012.DC.BluRay.1080p.DTS-HD.MA5.1.x265.10bit-bt9527.cc 6.32GB >> 正文

钢铁苍穹[简繁字幕].Iron.Sky.2012.DC.BluRay.1080p.DTS-HD.MA5.1.x265.10bit-bt9527.cc 6.32GB

2021年11月22日 08:34:05     电影发布:来源于网络     电影分类:海外电影     评论(0)    

钢铁苍穹[简繁字幕].Iron.Sky.2012.DC.BluRay.1080p.DTS HD.MA5.1.x265.10bit bt9527.cc 6.32GB 科幻片 动作片 喜剧片 海外电影  第1张

◎译 名 钢铁苍穹 / 铁幕苍穹(港) / 纳粹月球军(台)

◎片 名 Iron Sky

◎年 代 2012

◎产 地 芬兰 / 德国 / 澳大利亚

◎类 别 喜剧 / 动作 / 科幻

◎语 言 英语 / 德语

◎上映日期 2012-04-04(德国)

◎IMDb链接 https://www.imdb.com/title/tt1034314/

◎豆瓣评分 6.6/10 (44621人评价)

◎豆瓣链接 https://movie.douban.com/subject/3103186/

◎片 长 93分钟

◎导 演 提莫·沃伦索拉 Timo Vuorensola (id:1037182)

◎编 剧 约翰娜·西尼萨洛 Johanna Sinisalo (id:1319983)

迈克尔·卡尔辛柯 Michael Kalesniko (id:1288042)

贾莫·普斯卡拉 Jarmo Puskala (id:1043064)

提莫·沃伦索拉 Timo Vuorensola (id:1037182)

◎演 员 戈兹·奥托 G?tz Otto (id:1027957)

茱莉亚·迭泽 Julia Dietze (id:1014289)

克里斯托弗·卡比 Christopher Kirby (id:1319984)

斯黛芬妮·保罗 Stephanie Paul (id:1319985)

斯洛·派克内尔 Tilo Prückner (id:1041554)

乌多·基尔 Udo Kier (id:1027867)

Peta Sergeant Peta Sergeant (id:1319982)

迈克尔·库伦 Michael Cullen (id:1281585)

金姆·杰克逊 Kym Jackson (id:1207209)

◎标 签 科幻 / 黑色幽默 / 德国 / 喜剧 / 2012 / 月球 / 芬兰 / 电影

◎简 介

2018年,美国总统为了自己的竞选能够胜出,再次启动了登月计划。当世界上第一位黑人宇航员詹姆斯·华盛顿(克里斯托弗·卡比 Christopher Kirby 饰)与同伴踏上月球时,却遭遇到了子弹的袭击。原来,早在1945年纳粹即将战败之时,纳粹的科学家在反重力的研究上取得了巨大的突破,并在南极的秘密基地上,将一支纳粹的研究部队送上了月球,并在月球背面建立起了一个军事基地。在那里,纳粹的科学家不分昼夜地研究新技术、改善武器,妄图在月球上重新建立起部队,反攻地球。华盛顿被俘后,其随身携带的智能手机被纳粹的科学家认为是启动他们的终极飞船的关键部件,因此掌权的军官阿德勒(戈兹·奥托 G?tz Otto 饰)和情人雷纳特?里切特(茱莉亚·迭泽 Julia Dietze 饰)要求前往地球收集更多的手机,以便于反攻地球所用。当阿德勒带着华盛顿返回地球之后,一切的发...

◎获奖情况 (共1项)

第3届豆瓣电影鑫像奖 (2013)

豆渣单元 最渣影片(外语)(提名)

  1. ##### MediaInfo ######

  2. General

  3. Unique ID : 163768169107939198670167314985690080409 (0x7B349A220FE0F85EAA84B738DA202499)

  4. Complete name : [email protected]DQ.COM.mkv

  5. Format : Matroska

  6. Format version : Version 4

  7. File size : 6.32 GiB

  8. Duration : 1 h 50 min

  9. Overall bit rate mode : Variable

  10. Overall bit rate : 8 200 kb/s

  11. Encoded date : UTC 2021-11-21 04:22:24

  12. Writing application : mkvmerge v49.0.0 ('Sick Of Losing Soulmates') 64-bit

  13. Writing library : libebml v1.4.0 + libmatroska v1.6.1


  14. Video

  15. ID : 1

  16. Format : HEVC

  17. Format/Info : High Efficiency Video Coding

  18. Format profile : Main [email protected]@High

  19. Codec ID : V_MPEGH/ISO/HEVC

  20. Duration : 1 h 50 min

  21. Bit rate : 5 811 kb/s

  22. Width : 1 920 pixels

  23. Height : 792 pixels

  24. Display aspect ratio : 2.40:1

  25. Frame rate mode : Constant

  26. Frame rate : 24.000 FPS

  27. Color space : YUV

  28. Chroma subsampling : 4:2:0

  29. Bit depth : 10 bits

  30. Bits/(Pixel*Frame) : 0.159

  31. Stream size : 4.48 GiB (71%)

  32. Title : HEVC, [email protected]@High, 24 fps @ 5810 kbps

  33. Writing library : x265 3.4+14-gd419c7152:[Windows][GCC 10.2.0][64 bit] 10bit

  34. Encoding settings : cpuid=533541111039 / frame-threads=4 / numa-pools=16 / wpp / pmode / pme / no-psnr / no-ssim / log-level=2 / input-csp=1 / input-res=1920x792 / interlace=0 / total-frames=158875 / level-idc=51 / high-tier=1 / uhd-bd=0 / ref=5 / no-allow-non-conformance / no-repeat-headers / annexb / no-aud / no-hrd / info / hash=0 / no-temporal-layers / open-gop / min-keyint=24 / keyint=240 / gop-lookahead=0 / bframes=6 / b-adapt=2 / b-pyramid / bframe-bias=0 / rc-lookahead=40 / lookahead-slices=0 / NTMzNTQ=uuDQuD2mJt9fsCf / scenecut=40 / hist-scenecut=0 / radl=0 / no-splice / no-intra-refresh / ctu=32 / min-cu-size=8 / no-rect / no-amp / max-tu-size=32 / tu-inter-depth=3 / tu-intra-depth=3 / limit-tu=4 / rdoq-level=2 / dynamic-rd=0.00 / no-ssim-rd / signhide / no-tskip / nr-intra=0 / nr-inter=0 / no-constrained-intra / no-strong-intra-smoothing / max-merge=4 / limit-refs=1 / limit-modes / me=3 / subme=4 / merange=25 / temporal-mvp / no-frame-dup / no-hme / weightp / weightb / no-analyze-src-pics / deblock=-3:-3 / no-sao / no-sao-non-deblock / rd=6 / selective-sao=0 / no-early-skip / rskip / no-fast-intra / no-tskip-fast / no-cu-lossless / b-intra / no-splitrd-skip / rdpenalty=0 / psy-rd=2.00 / psy-rdoq=1.00 / no-rd-refine / no-lossless / cbqpoffs=0 / crqpoffs=0 / rc=crf / crf=17.0 / qcomp=0.65 / qpstep=4 / stats-write=0 / stats-read=0 / vbv-maxrate=80000 / vbv-bufsize=80000 / vbv-init=0.9 / crf-max=0.0 / crf-min=0.0 / ipratio=1.40 / pbratio=1.30 / aq-mode=2 / aq-strength=0.85 / cutree / zone-count=0 / no-strict-cbr / qg-size=32 / no-rc-grain / qpmax=69 / qpmin=0 / no-const-vbv / sar=1 / overscan=0 / videoformat=5 / range=0 / colorprim=1 / transfer=1 / colormatrix=1 / chromaloc=0 / display-window=0 / cll=0,0 / min-luma=0 / max-luma=1023 / log2-max-poc-lsb=8 / vui-timing-info / vui-hrd-info / slices=1 / no-opt-qp-pps / no-opt-ref-list-length-pps / no-multi-pass-opt-rps / scenecut-bias=0.05 / hist-threshold=0.03 / no-opt-cu-delta-qp / no-aq-motion / no-hdr10 / no-hdr10-opt / no-dhdr10-opt / no-idr-recovery-sei / analysis-reuse-level=0 / analysis-save-reuse-level=0 / analysis-load-reuse-level=0 / scale-factor=0 / refine-intra=0 / refine-inter=0 / refine-mv=1 / refine-ctu-distortion=0 / no-limit-sao / ctu-info=0 / no-lowpass-dct / refine-analysis-type=0 / copy-pic=1 / max-ausize-factor=1.0 / no-dynamic-refine / no-single-sei / no-hevc-aq / no-svt / no-field / qp-adaptation-range=1.00 / no-scenecut-aware-qpconformance-window-offsets / right=0 / bottom=0 / NTMzNTQ= / decoder-max-rate=0

  35. Language : English

  36. Default : Yes

  37. Forced : No

  38. Color range : Limited

  39. Color primaries : BT.709

  40. Transfer characteristics : BT.709

  41. Matrix coefficients : BT.709


  42. Audio

  43. ID : 2

  44. Format : DTS XLL

  45. Format/Info : Digital Theater Systems

  46. Commercial name : DTS-HD Master Audio

  47. Codec ID : A_DTS

  48. Duration : 1 h 50 min

  49. Bit rate mode : Variable

  50. Bit rate : 2 333 kb/s

  51. Channel(s) : 6 channels

  52. Channel layout : C L R Ls Rs LFE

  53. Sampling rate : 48.0 kHz

  54. Frame rate : 93.750 FPS (512 SPF)

  55. Bit depth : 16 bits

  56. Compression mode : Lossless

  57. Stream size : 1.80 GiB (28%)

  58. Title : English DTS-HD Master Audio 5.1 @ 2333 kbps

  59. Language : English

  60. Default : Yes

  61. Forced : No


  62. Text #1

  63. ID : 3

  64. Format : PGS

  65. Codec ID : S_HDMV/PGS

  66. Codec ID/Info : Picture based subtitle format used on BDs/HD-DVDs

  67. Duration : 1 h 40 min

  68. Bit rate : 20.3 kb/s

  69. Count of elements : 1810

  70. Stream size : 14.6 MiB (0%)

  71. Title : Eng/SUP

  72. Language : English

  73. Default : No

  74. Forced : No


  75. Text #2

  76. ID : 4

  77. Format : PGS

  78. Codec ID : S_HDMV/PGS

  79. Codec ID/Info : Picture based subtitle format used on BDs/HD-DVDs

  80. Duration : 1 h 40 min

  81. Bit rate : 19.4 kb/s

  82. Count of elements : 1854

  83. Stream size : 14.0 MiB (0%)

  84. Title : Chs/SUP 简体

  85. Language : Chinese

  86. Default : Yes

  87. Forced : No


  88. Text #3

  89. ID : 5

  90. Format : PGS

  91. Codec ID : S_HDMV/PGS

  92. Codec ID/Info : Picture based subtitle format used on BDs/HD-DVDs

  93. Duration : 1 h 40 min

  94. Bit rate : 18.8 kb/s

  95. Count of elements : 1854

  96. Stream size : 13.5 MiB (0%)

  97. Title : Cht/SUP 繁体

  98. Language : Chinese

  99. Default : No

  100. Forced : No


  101. Menu

  102. 00:00:00.000 : en:第 01 章

  103. 00:09:28.917 : en:第 02 章

  104. 00:20:05.792 : en:第 03 章

  105. 00:31:34.917 : en:第 04 章

  106. 00:38:02.083 : en:第 05 章

  107. 00:47:47.500 : en:第 06 章

  108. 00:56:44.125 : en:第 07 章

  109. 01:06:09.375 : en:第 08 章

  110. 01:13:06.042 : en:第 09 章

  111. 01:20:37.583 : en:第 10 章

  112. 01:31:45.292 : en:第 11 章

  113. 01:41:40.875 : en:第 12 章




复制代码



文件下载


除非特别注明,本文『钢铁苍穹[简繁字幕].Iron.Sky.2012.DC.BluRay.1080p.DTS-HD.MA5.1.x265.10bit-bt9527.cc 6.32GB』来源于互联网机器人自动抓取,非本站原创。 浮游电影网不对本文拥有版权,如有侵犯,请联系邮箱:fuyouu#yandex.com[#换成@]投诉。我们会在15个工作日内删除。 但烦请转载时请标明出处:“本文转载于『浮游电影网』,原文地址:https://www.fuyouu.com/18937.html

评论吧骚年!

发表你的见解   

昵称*

E-mail*(建议输入,以便收到博主回复的提示邮件)

验证码*

您可以使用eMule或eMule Mod(Windows)、aMule(Win、Linux、Mac)等软件下载eD2k链接。。
eMule收藏集(.emulecollection)文件是您选中的所有链接的列表文件。eMule可以直接下载它们。
按住SHIFT键选择可以选中多个选择框。
可用文件名和大小选择器来选择文件。
文件名选择器帮您根据文件名称或后缀来选择文件。不分大小写。
符号使用:
和:空格( )、+
不包含:-
或:|
转义:一对英文引号("");
匹配开头:^
匹配结尾:$
例如:
选中所有名称中包含有“eMule”或“0.49c”字眼,但不包含有“exe”字眼的:emule|0.49c -exe
选中所有名称的开头是“eMule”,结尾是“0.49c”的:^emule 0.49c$
选中所有名称中带有“eMule 0.49c”的(必须是“eMule 0.49c”,中间没有别的字符,不能是“eMule fake 0.49c”),需要转义:"emule 0.49c"
大小选择器帮您根据文件大小选择文件。