当前位置: 首页 >> 海外电影 >> 恶魔[中文字幕].Les.Diaboliques.1955.1080p.BluRay.DD2.0.x265-10bit-bt9527.cc 7.15GB >> 正文

恶魔[中文字幕].Les.Diaboliques.1955.1080p.BluRay.DD2.0.x265-10bit-bt9527.cc 7.15GB

2021年11月22日 08:30:05     电影发布:来源于网络     电影分类:海外电影     评论(0)    

恶魔[中文字幕].Les.Diaboliques.1955.1080p.BluRay.DD2.0.x265 10bit bt9527.cc 7.15GB 悬疑片 犯罪片 惊悚片 剧情片 海外电影  第1张

◎译 名 恶魔 / 浴室情杀案(港) / 像恶魔的女人 / 魔鬼双姝 / Diabolique

◎片 名 Les diaboliques

◎年 代 1955

◎产 地 法国

◎类 别 剧情 / 悬疑 / 惊悚 / 犯罪

◎语 言 法语

◎上映日期 1955-01-29

◎IMDb链接 https://www.imdb.com/title/tt0046911/

◎豆瓣评分 8.4/10 (14189人评价)

◎豆瓣链接 https://movie.douban.com/subject/1293213/

◎片 长 114分钟

◎导 演 亨利-乔治·克鲁佐 Henri-Georges Clouzot (id:1068387)

◎编 剧 皮埃尔·布瓦洛 Pierre Boileau (id:1045915)

托马·纳西雅克 Thomas Narcejac (id:1010896)

亨利-乔治·克鲁佐 Henri-Georges Clouzot (id:1068387)

弗雷德里克·格伦德尔 Frédéric Grendel (id:1013508)

◎演 员 西蒙·西涅莱 Simone Signoret (id:1002731)

薇拉·克劳佐 Véra Clouzot (id:1014055)

保罗·默里斯 Paul Meurisse (id:1037201)

夏尔·瓦内尔 Charles Vanel (id:1025398)

让·布罗沙尔 Jean Brochard (id:1073049)

Thérèse Dorny Thérèse Dorny (id:1088581)

米歇尔·塞罗尔 Michel Serrault (id:1007148)

乔治·沙马拉 Georges Chamarat (id:1070257)

罗贝尔·达尔邦 Robert Dalban (id:1074537)

Camille Guérini Camille Guérini (id:1101224)

雅克·黑林 Jacques Hilling (id:1101472)

让·勒费弗尔 Jean Lefebvre (id:1103709)

让·特默森 Jean Témerson (id:1149356)

雅克·瓦雷纳 Jacques Varennes (id:1158891)

乔吉斯·伯乔利 Georges Poujouly (id:1005572)

Yves-Marie Maurin Yves-Marie Maurin (id:1120049)

诺埃尔·罗克韦尔 No?l Roquevert (id:1137658)

皮埃尔·拉尔凯 Pierre Larquey (id:1107003)

Jean-Pierre Bonnefous Jean-Pierre Bonnefous (id:1063918)

Christian Brocard Christian Brocard (id:1078825)

让·克拉里厄 Jean Clarieux (id:1069168)

Henri Coutet Henri Coutet (id:1068653)

约翰尼·哈里戴 Johnny Hallyday (id:1018266)

Zappy Max Zappy Max (id:1120437)

Madeleine Suffel Madeleine Suffel (id:1158139)

Jimmy Urbain Jimmy Urbain (id:1157665)

亨利-乔治·克鲁佐 Henri-Georges Clouzot (id:1068387)

◎标 签 悬疑 / 法国 / 犯罪 / 惊悚 / 亨利-乔治·克鲁佐 / 法国电影 / 1955 / 黑白

◎简 介

德拉萨尔寄宿学校里,女教师克里斯蒂娜和丈夫、校长米歇尔·德拉萨尔感情不偕,德拉萨尔对待他妻子也很粗暴。克里斯蒂娜经过长时间考虑,决定摆脱丈夫,在另一个教师、女友尼古尔的劝说下,她们决定实施一个谋杀计划……

  1. ##### MediaInfo ######

  2. General

  3. Unique ID : 228221236131271265341288110039950362401 (0xABB1CFAECD82231E07C4F63C9E4B0721)

  4. Complete name : [email protected]COM.mkv

  5. Format : Matroska

  6. Format version : Version 4

  7. File size : 7.15 GiB

  8. Duration : 1 h 57 min

  9. Overall bit rate : 8 733 kb/s

  10. Movie name : Les Diaboliques 1955 1080p BluRay DD2.0 [email protected]

  11. Encoded date : UTC 2021-11-20 02:06:37

  12. Writing application : mkvmerge v38.0.0 ('The Silent Type') 64-bit

  13. Writing library : libebml v1.3.9 + libmatroska v1.5.2


  14. Video

  15. ID : 1

  16. Format : HEVC

  17. Format/Info : High Efficiency Video Coding

  18. Format profile : Main [email protected]@High

  19. Codec ID : V_MPEGH/ISO/HEVC

  20. Duration : 1 h 57 min

  21. Bit rate : 8 061 kb/s

  22. Width : 1 440 pixels

  23. Height : 1 080 pixels

  24. Display aspect ratio : 4:3

  25. Frame rate mode : Constant

  26. Frame rate : 23.976 (24000/1001/53354) FPS

  27. Color space : YUV

  28. Chroma subsampling : 4:2:0

  29. Bit depth : 10 bits

  30. Bits/(Pixel*Frame) : 0.216

  31. Stream size : 6.60 GiB (92%)

  32. Title : @HDSky

  33. Writing library : x265 - H.265/HEVC codec

  34. Default : Yes

  35. Forced : No


  36. Audio

  37. ID : 2

  38. Format : AC-3

  39. Format/Info : Audio Coding 3

  40. Commercial name : Dolby Digital

  41. Codec ID : A_AC3

  42. Duration : 1 h 57 min

  43. Bit rate mode : Constant

  44. Bit rate : 640 kb/s

  45. Channel(s) : 1 channel

  46. Channel layout : C

  47. Sampling rate : 48.0 kHz

  48. Frame rate : 31.250 FPS (1536 SPF)

  49. Compression mode : Lossy

  50. Stream size : 536 MiB (7%)

  51. Title : French

  52. Language : French

  53. Service kind : Complete Main

  54. Default : Yes

  55. Forced : No


  56. Text #1

  57. ID : 3

  58. Format : PGS

  59. Muxing mode : zlib

  60. Codec ID : S_HDMV/PGS

  61. Codec ID/Info : Picture based subtitle format used on BDs/HD-DVDs

  62. Duration : 1 h 56 min

  63. Bit rate : 26.9 kb/s

  64. Count of elements : 2229

  65. Stream size : 22.5 MiB (0%)

  66. Title : CHS

  67. Language : Chinese

  68. Default : Yes

  69. Forced : No


  70. Text #2

  71. ID : 4

  72. Format : PGS

  73. Muxing mode : zlib

  74. Codec ID : S_HDMV/PGS

  75. Codec ID/Info : Picture based subtitle format used on BDs/HD-DVDs

  76. Duration : 1 h 56 min

  77. Bit rate : 27.4 kb/s

  78. Count of elements : 2229

  79. Stream size : 22.9 MiB (0%)

  80. Title : CHT

  81. Language : Chinese

  82. Default : No

  83. Forced : No


  84. Menu

  85. 00:00:00.000 : en:Chapter 01

  86. 00:03:51.273 : en:Chapter 02

  87. 00:06:41.109 : en:Chapter 03

  88. 00:10:39.973 : en:Chapter 04

  89. 00:15:51.784 : en:Chapter 05

  90. 00:19:57.446 : en:Chapter 06

  91. 00:23:40.461 : en:Chapter 07

  92. 00:25:59.183 : en:Chapter 08

  93. 00:31:03.487 : en:Chapter 09

  94. 00:41:09.634 : en:Chapter 10

  95. 00:44:09.856 : en:Chapter 11

  96. 00:47:54.997 : en:Chapter 12

  97. 00:51:03.978 : en:Chapter 13

  98. 00:53:49.226 : en:Chapter 14

  99. 00:57:58.809 : en:Chapter 15

  100. 01:00:53.400 : en:Chapter 16

  101. 01:05:34.139 : en:Chapter 17

  102. 01:09:11.731 : en:Chapter 18

  103. 01:15:28.149 : en:Chapter 19

  104. 01:18:50.559 : en:Chapter 20

  105. 01:22:53.177 : en:Chapter 21

  106. 01:29:16.643 : en:Chapter 22

  107. 01:32:16.740 : en:Chapter 23

  108. 01:36:40.837 : en:Chapter 24

  109. 01:42:11.417 : en:Chapter 25

  110. 01:45:45.839 : en:Chapter 26

  111. 01:52:34.873 : en:Chapter 27

  112. 01:55:46.273 : en:Chapter 28




复制代码




文件下载


除非特别注明,本文『恶魔[中文字幕].Les.Diaboliques.1955.1080p.BluRay.DD2.0.x265-10bit-bt9527.cc 7.15GB』来源于互联网机器人自动抓取,非本站原创。 浮游电影网不对本文拥有版权,如有侵犯,请联系邮箱:fuyouu#yandex.com[#换成@]投诉。我们会在15个工作日内删除。 但烦请转载时请标明出处:“本文转载于『浮游电影网』,原文地址:https://www.fuyouu.com/18934.html

评论吧骚年!

发表你的见解   

昵称*

E-mail*(建议输入,以便收到博主回复的提示邮件)

验证码*

您可以使用eMule或eMule Mod(Windows)、aMule(Win、Linux、Mac)等软件下载eD2k链接。。
eMule收藏集(.emulecollection)文件是您选中的所有链接的列表文件。eMule可以直接下载它们。
按住SHIFT键选择可以选中多个选择框。
可用文件名和大小选择器来选择文件。
文件名选择器帮您根据文件名称或后缀来选择文件。不分大小写。
符号使用:
和:空格( )、+
不包含:-
或:|
转义:一对英文引号("");
匹配开头:^
匹配结尾:$
例如:
选中所有名称中包含有“eMule”或“0.49c”字眼,但不包含有“exe”字眼的:emule|0.49c -exe
选中所有名称的开头是“eMule”,结尾是“0.49c”的:^emule 0.49c$
选中所有名称中带有“eMule 0.49c”的(必须是“eMule 0.49c”,中间没有别的字符,不能是“eMule fake 0.49c”),需要转义:"emule 0.49c"
大小选择器帮您根据文件大小选择文件。