当前位置: 首页 >> 欧美电影 >> 塔米·菲的眼睛[简繁字幕].The.Eyes.of.Tammy.Faye.2021.BluRay.1080p.DTS-HD.MA5.1.x265.10bit-bt9527.cc 10.37GB >> 正文

塔米·菲的眼睛[简繁字幕].The.Eyes.of.Tammy.Faye.2021.BluRay.1080p.DTS-HD.MA5.1.x265.10bit-bt9527.cc 10.37GB

2021年11月21日 10:31:42     电影发布:来源于网络     电影分类:欧美电影     评论(0)    

塔米·菲的眼睛[简繁字幕].The.Eyes.of.Tammy.Faye.2021.BluRay.1080p.DTS HD.MA5.1.x265.10bit bt9527.cc 10.37GB 传记 剧情片 欧美电影  第1张

◎译 名 塔米·菲的眼睛

◎片 名 The Eyes of Tammy Faye

◎年 代 2021

◎产 地 美国 / 加拿大

◎类 别 剧情 / 传记

◎语 言 英语

◎上映日期 2021-09-12(多伦多电影节) / 2021-09-17(美国)

◎IMDb链接 https://www.imdb.com/title/tt9115530/

◎豆瓣评分 6.7/10 (376人评价)

◎豆瓣链接 https://movie.douban.com/subject/33440550/

◎片 长 126分钟

◎导 演 迈克尔·肖沃特 Michael Showalter (id:1019137)

◎演 员 杰西卡·查斯坦 Jessica Chastain (id:1000225)

安德鲁·加菲尔德 Andrew Garfield (id:1022620)

文森特·多诺费奥 Vincent D'Onofrio (id:1010546)

切莉·琼斯 Cherry Jones (id:1040616)

山姆·贾格 Sam Jaeger (id:1004698)

弗瑞德里克·林恩 Fredric Lehne (id:1004785)

加布里埃尔·奥尔德斯 Gabriel Olds (id:1132474)

钱德勒·海德 Chandler Head (id:1379170)

林赛·艾利夫 Lindsay Ayliffe (id:1374783)

杰伊·胡古雷 Jay Huguley (id:1108725)

马克·怀斯特拉克 Mark Wystrach (id:1224940)

布伦特·莫雷尔·加斯金斯 Brent Moorer Gaskins (id:1392726)

柯莉·坎帕尼 Coley Campany (id:1345840)

Drew Broderick Drew Broderick (id:1073749)

西奥多·沙皮洛 Theodore Shapiro (id:1028276)

◎标 签 传记 / 美国 / 2021 / 剧情 / 宗教 / 婚姻 / 加拿大 / 加菲

◎简 介

《综艺》报道:杰西卡·查斯坦与安德鲁·加菲尔德将出演[福斯探照灯]传记片《#塔米·菲的眼睛#》(Eyes of Tammy Faye)。该作品改编自2000年同名纪录片,讲述塔米·菲(杰西卡·查斯坦 饰)和吉姆·贝克(安德鲁·加菲尔德 饰)这对夫妇作为电视福音布道家的大起大落。在上世纪70-80年代,塔米·菲和吉姆·贝克从贫寒中奋起,创建了当时世界上最庞大的宗教广播电视网和一个主题公园,从而受人敬仰。不过好景不长,经济上的不当行为、诡计多端的竞争对手以及性丑闻的爆发使得这对夫妇的婚姻破裂,导致他们精心构建起来的帝国从而崩塌。影片将由“大病”导演迈克尔·肖沃特执导。杰西卡·查斯坦会担任本片制片人。

◎获奖情况 (共2项)

第69届圣塞巴斯蒂安国际电影节 (2021)

金贝壳奖(提名)

└──迈克尔·肖沃特 (id:1019137)

最佳主角表演

└──杰西卡·查斯坦 (id:1000225)

  1. ##### MediaInfo ######

  2. General

  3. Unique ID : 265016308381299442679333708120804101174 (0xC76048CED9195AECEFBFFA1D3CAD0C36)

  4. Complete name : The.Eye[email protected]BBQDDQ.COM.mkv

  5. Format : Matroska

  6. Format version : Version 4

  7. File size : 10.4 GiB

  8. Duration : 2 h 6 min

  9. Overall bit rate mode : Variable

  10. Overall bit rate : 11.7 Mb/s

  11. Encoded date : UTC 2021-11-20 11:06:17

  12. Writing application : mkvmerge v49.0.0 ('Sick Of Losing Soulmates') 64-bit

  13. Writing library : libebml v1.4.0 + libmatroska v1.6.1


  14. Video

  15. ID : 1

  16. Format : HEVC

  17. Format/Info : High Efficiency Video Coding

  18. Format profile : Main [email protected]@High

  19. Codec ID : V_MPEGH/ISO/HEVC

  20. Duration : 2 h 6 min

  21. Bit rate : 8 409 kb/s

  22. Width : 1 920 pixels

  23. Height : 1 036 pixels

  24. Display aspect ratio : 1.85:1

  25. Frame rate mode : Constant

  26. Frame rate : 23.976 (24000/1001/53354) FPS

  27. Color space : YUV

  28. Chroma subsampling : 4:2:0

  29. Bit depth : 10 bits

  30. Bits/(Pixel*Frame) : 0.176

  31. Stream size : 7.43 GiB (72%)

  32. Title : HEVC, [email protected]@High, 24/1.001 fps @ 8408 kbps

  33. Writing library : x265 3.4+14-gd419c7152:[Windows][GCC 10.2.0][64 bit] 10bit

  34. Encoding settings : cpuid=533541111039 / frame-threads=3 / numa-pools=8 / wpp / pmode / pme / no-psnr / no-ssim / log-level=2 / input-csp=1 / input-res=1920x1036 / interlace=0 / total-frames=182012 / level-idc=51 / high-tier=1 / uhd-bd=0 / ref=5 / no-allow-non-conformance / no-repeat-headers / annexb / no-aud / no-hrd / info / hash=0 / no-temporal-layers / open-gop / min-keyint=24 / keyint=240 / gop-lookahead=0 / bframes=6 / b-adapt=2 / b-pyramid / bframe-bias=0 / rc-lookahead=40 / lookahead-slices=0 / NTMzNTQ=uuDQuD2mJt9fsCf / scenecut=40 / hist-scenecut=0 / radl=0 / no-splice / no-intra-refresh / ctu=32 / min-cu-size=8 / no-rect / no-amp / max-tu-size=32 / tu-inter-depth=3 / tu-intra-depth=3 / limit-tu=4 / rdoq-level=2 / dynamic-rd=0.00 / no-ssim-rd / signhide / no-tskip / nr-intra=0 / nr-inter=0 / no-constrained-intra / no-strong-intra-smoothing / max-merge=4 / limit-refs=1 / limit-modes / me=3 / subme=4 / merange=25 / temporal-mvp / no-frame-dup / no-hme / weightp / weightb / no-analyze-src-pics / deblock=-3:-3 / no-sao / no-sao-non-deblock / rd=6 / selective-sao=0 / no-early-skip / rskip / no-fast-intra / no-tskip-fast / no-cu-lossless / b-intra / no-splitrd-skip / rdpenalty=0 / psy-rd=2.00 / psy-rdoq=1.00 / no-rd-refine / no-lossless / cbqpoffs=0 / crqpoffs=0 / rc=crf / crf=17.0 / qcomp=0.65 / qpstep=4 / stats-write=0 / stats-read=0 / vbv-maxrate=80000 / vbv-bufsize=80000 / vbv-init=0.9 / crf-max=0.0 / crf-min=0.0 / ipratio=1.40 / pbratio=1.30 / aq-mode=2 / aq-strength=0.85 / cutree / zone-count=0 / no-strict-cbr / qg-size=32 / no-rc-grain / qpmax=69 / qpmin=0 / no-const-vbv / sar=1 / overscan=0 / videoformat=5 / range=0 / colorprim=1 / transfer=1 / colormatrix=1 / chromaloc=0 / display-window=0 / cll=0,0 / min-luma=0 / max-luma=1023 / log2-max-poc-lsb=8 / vui-timing-info / vui-hrd-info / slices=1 / no-opt-qp-pps / no-opt-ref-list-length-pps / no-multi-pass-opt-rps / scenecut-bias=0.05 / hist-threshold=0.03 / no-opt-cu-delta-qp / no-aq-motion / no-hdr10 / no-hdr10-opt / no-dhdr10-opt / no-idr-recovery-sei / analysis-reuse-level=0 / analysis-save-reuse-level=0 / analysis-load-reuse-level=0 / scale-factor=0 / refine-intra=0 / refine-inter=0 / refine-mv=1 / refine-ctu-distortion=0 / no-limit-sao / ctu-info=0 / no-lowpass-dct / refine-analysis-type=0 / copy-pic=1 / max-ausize-factor=1.0 / no-dynamic-refine / no-single-sei / no-hevc-aq / no-svt / no-field / qp-adaptation-range=1.00 / no-scenecut-aware-qpconformance-window-offsets / right=0 / bottom=0 / NTMzNTQ= / decoder-max-rate=0

  35. Language : English

  36. Default : Yes

  37. Forced : No

  38. Color range : Limited

  39. Color primaries : BT.709

  40. Transfer characteristics : BT.709

  41. Matrix coefficients : BT.709


  42. Audio

  43. ID : 2

  44. Format : DTS XLL

  45. Format/Info : Digital Theater Systems

  46. Commercial name : DTS-HD Master Audio

  47. Codec ID : A_DTS

  48. Duration : 2 h 6 min

  49. Bit rate mode : Variable

  50. Bit rate : 3 163 kb/s

  51. Channel(s) : 6 channels

  52. Channel layout : C L R Ls Rs LFE

  53. Sampling rate : 48.0 kHz

  54. Frame rate : 93.750 FPS (512 SPF)

  55. Bit depth : 24 bits

  56. Compression mode : Lossless

  57. Stream size : 2.80 GiB (27%)

  58. Title : English DTS-HD Master Audio 5.1 @ 3163 kbps

  59. Language : English

  60. Default : Yes

  61. Forced : No


  62. Text #1

  63. ID : 3

  64. Format : PGS

  65. Codec ID : S_HDMV/PGS

  66. Codec ID/Info : Picture based subtitle format used on BDs/HD-DVDs

  67. Duration : 1 h 59 min

  68. Bit rate : 63.9 kb/s

  69. Count of elements : 4914

  70. Stream size : 54.9 MiB (1%)

  71. Title : Eng/SUP

  72. Language : English

  73. Default : No

  74. Forced : No


  75. Text #2

  76. ID : 4

  77. Format : PGS

  78. Codec ID : S_HDMV/PGS

  79. Codec ID/Info : Picture based subtitle format used on BDs/HD-DVDs

  80. Duration : 1 h 59 min

  81. Bit rate : 50.7 kb/s

  82. Count of elements : 2258

  83. Stream size : 43.3 MiB (0%)

  84. Title : Chs/SUP 简体

  85. Language : Chinese

  86. Default : Yes

  87. Forced : No


  88. Text #3

  89. ID : 5

  90. Format : PGS

  91. Codec ID : S_HDMV/PGS

  92. Codec ID/Info : Picture based subtitle format used on BDs/HD-DVDs

  93. Duration : 1 h 59 min

  94. Bit rate : 52.2 kb/s

  95. Count of elements : 2258

  96. Stream size : 44.6 MiB (0%)

  97. Title : Cht/SUP 繁体

  98. Language : Chinese

  99. Default : No

  100. Forced : No


  101. Menu

  102. 00:00:00.000 : en:第 01 章

  103. 00:03:31.044 : en:第 02 章

  104. 00:07:37.290 : en:第 03 章

  105. 00:14:47.303 : en:第 04 章

  106. 00:21:36.462 : en:第 05 章

  107. 00:22:46.949 : en:第 06 章

  108. 00:25:51.675 : en:第 07 章

  109. 00:32:18.854 : en:第 08 章

  110. 00:40:06.696 : en:第 09 章

  111. 00:45:47.662 : en:第 10 章

  112. 00:50:21.227 : en:第 11 章

  113. 00:58:48.859 : en:第 12 章

  114. 01:04:50.011 : en:第 13 章

  115. 01:11:28.576 : en:第 14 章

  116. 01:16:55.611 : en:第 15 章

  117. 01:23:39.264 : en:第 16 章

  118. 01:33:23.056 : en:第 17 章

  119. 01:41:12.525 : en:第 18 章

  120. 01:43:02.176 : en:第 19 章

  121. 01:47:07.212 : en:第 20 章

  122. 01:50:47.975 : en:第 21 章

  123. 01:52:09.890 : en:第 22 章

  124. 01:59:36.044 : en:第 23 章

  125. 02:00:32.058 : en:第 24 章




复制代码



文件下载


除非特别注明,本文『塔米·菲的眼睛[简繁字幕].The.Eyes.of.Tammy.Faye.2021.BluRay.1080p.DTS-HD.MA5.1.x265.10bit-bt9527.cc 10.37GB』来源于互联网机器人自动抓取,非本站原创。 浮游电影网不对本文拥有版权,如有侵犯,请联系邮箱:fuyouu#yandex.com[#换成@]投诉。我们会在15个工作日内删除。 但烦请转载时请标明出处:“本文转载于『浮游电影网』,原文地址:https://www.fuyouu.com/18929.html

评论吧骚年!

发表你的见解   

昵称*

E-mail*(建议输入,以便收到博主回复的提示邮件)

验证码*

您可以使用eMule或eMule Mod(Windows)、aMule(Win、Linux、Mac)等软件下载eD2k链接。。
eMule收藏集(.emulecollection)文件是您选中的所有链接的列表文件。eMule可以直接下载它们。
按住SHIFT键选择可以选中多个选择框。
可用文件名和大小选择器来选择文件。
文件名选择器帮您根据文件名称或后缀来选择文件。不分大小写。
符号使用:
和:空格( )、+
不包含:-
或:|
转义:一对英文引号("");
匹配开头:^
匹配结尾:$
例如:
选中所有名称中包含有“eMule”或“0.49c”字眼,但不包含有“exe”字眼的:emule|0.49c -exe
选中所有名称的开头是“eMule”,结尾是“0.49c”的:^emule 0.49c$
选中所有名称中带有“eMule 0.49c”的(必须是“eMule 0.49c”,中间没有别的字符,不能是“eMule fake 0.49c”),需要转义:"emule 0.49c"
大小选择器帮您根据文件大小选择文件。