当前位置: 首页 >> 日韩电影 >> 杀手寓言 第二章[中文字幕].The.FABLE.The.Killer.Who.Doesnt.Kill.2021.1080p.NF.WEB-DL.DDP5.1.x264-bt9527 2.62GB >> 正文

杀手寓言 第二章[中文字幕].The.FABLE.The.Killer.Who.Doesnt.Kill.2021.1080p.NF.WEB-DL.DDP5.1.x264-bt9527 2.62GB

2021年11月20日 22:39:42     电影发布:来源于网络     电影分类:日韩电影     评论(0)    

杀手寓言 第二章[中文字幕].The.FABLE.The.Killer.Who.Doesnt.Kill.2021.1080p.NF.WEB DL.DDP5.1.x264 bt9527 2.62GB 悬疑片 惊悚片 动作片 喜剧片 日韩电影  第1张

◎译 名 杀手寓言 第二章 / 杀手寓言2 杀不死的杀手 / 杀手寓言:杀手不杀人(台) / The Fable 2 / ザ?ファブル 第二章 / The Fable: The Killer Who Doesn't Kill

◎片 名 ザ?ファブル 殺さない殺し屋

◎年 代 2021

◎产 地 日本

◎类 别 喜剧 / 动作 / 悬疑 / 惊悚

◎语 言 日语

◎上映日期 2021-06-12(上海国际电影节) / 2021-06-18(日本)

◎IMDb链接 https://www.imdb.com/title/tt13017204/

◎豆瓣评分 8.2/10 (464人评价)

◎豆瓣链接 https://movie.douban.com/subject/35184151/

◎导 演 江口幹 Kan Eguchi (id:1396287)

◎编 剧 江口幹 Kan Eguchi (id:1396287)

山浦雅大 Masahiro Yamaura (id:1381805)

◎演 员 冈田准一 Junichi Okada (id:1042052)

安藤政信 Masanobu And? (id:1045426)

桥本爱实 Manami Hashimoto (id:1316624)

平手友梨奈 Yurina Hirate (id:1357504)

井之胁海 Kai Inowaki (id:1312156)

木村文乃 Fumino Kimura (id:1315257)

宫川大辅 Daisuke Miyagawa (id:1253611)

佐藤二朗 Jir? Sat? (id:1315821)

佐藤浩市 K?ichi Sat? (id:1037432)

堤真一 Shin'ichi Tsutsumi (id:1151079)

山本美月 Mizuki Yamamoto (id:1325630)

安田显 Ken Yasuda (id:1276143)

横山诚 Makoto Yokoyama (id:1460015)

◎标 签 日本 / 日本电影 / 平手友梨奈 / 漫改 / 电影 / 冈田准一 / 漫画小说真人版 / 木村文乃

◎简 介

任何目标都能在六秒内解决,有如传说般存在的天才杀手「寓言」(冈田准一 饰),是个让黑社会闻风丧胆的狠角色。因应「老板」(佐藤浩市 饰)命令,他与搭档(木村文乃 饰)乔装兄妹档,并化名「佐藤明」过着普通人生活,更不得在大坂居住的这一年内杀害任何人…。某天,他偶然遇见神祕的轮椅少女(平手友梨奈 饰),以及看似关爱孩子未来的非营利组织创办人宇津帆(堤真一 饰)。种种不寻常的一切,让寓言回想起四年前的暗杀任务。面对风雨欲来的重重危机,寓言能否继续遵守不杀人的命令,守护自己与身边的亲友呢?

  1. ##### MediaInfo ######

  2. General

  3. Unique ID : 210861316153865967651628835093373782651 (0x9EA2698BCBB47B0DE8067FB2CD840A7B)

  4. Complete name : The.FABLE.Th[email protected]BBQDDQ.COM.mkv

  5. Format : Matroska

  6. Format version : Version 4

  7. File size : 2.62 GiB

  8. Duration : 2 h 11 min

  9. Overall bit rate mode : Variable

  10. Overall bit rate : 2 857 kb/s

  11. Encoded date : UTC 2021-11-19 10:45:57

  12. Writing application : mkvmerge v62.0.0 ('Apollo') 64-bit

  13. Writing library : libebml v1.4.2 + libmatroska v1.6.4


  14. Video

  15. ID : 1

  16. Format : AVC

  17. Format/Info : Advanced Video Codec

  18. Format profile : [email protected]

  19. Format settings : CABAC / 3 Ref Frames

  20. Format settings, CABAC : Yes

  21. Format settings, Reference frames : 3 frames

  22. Codec ID : V_MPEG4/ISO/AVC

  23. Duration : 2 h 11 min

  24. Bit rate mode : Variable

  25. Bit rate : 2 213 kb/s

  26. Nominal bit rate : 3 160 kb/s

  27. Maximum bit rate : 4 740 kb/s

  28. Width : 1 920 pixels

  29. Height : 1 080 pixels

  30. Display aspect ratio : 16:9

  31. Frame rate mode : Constant

  32. Frame rate : 23.976 (24000/1001/53354) FPS

  33. Color space : YUV

  34. Chroma subsampling : 4:2:0

  35. Bit depth : 8 bits

  36. Scan type : Progressive

  37. Bits/(Pixel*Frame) : 0.045

  38. Stream size : 2.03 GiB (77%)

  39. Writing library : x264 core 148 r2724 dbe0335

  40. Encoding settings : cabac=1 / ref=3 / deblock=1:0:0 / analyse=0x1:0x111 / me=umh / subme=10 / psy=1 / psy_rd=1.00:0.00 / mixed_ref=1 / me_range=24 / chroma_me=1 / trellis=2 / 8x8dct=0 / cqm=0 / deadzone=21,11 / fast_pskip=1 / chroma_qp_offset=-2 / threads=8 / lookahead_threads=1 / sliced_threads=0 / nr=0 / decimate=1 / interlaced=0 / NTMzNTQ= / bluray_compat=0 / stitchable=1 / constrained_intra=0 / bframes=2 / b_pyramid=0 / b_adapt=2 / b_bias=0 / direct=3 / weightb=1 / open_gop=0 / weightp=2 / keyint=250 / keyint_min=23 / scenecut=0 / intra_refresh=0 / rc_lookahead=48 / rc=2pass / mbtree=1 / bitrate=3160 / ratetol=1.0 / qcomp=0.50 / qpmin=6 / qpmax=51 / qpstep=4 / cplxblur=20.0 / qblur=0.5 / vbv_maxrate=4740 / vbv_bufsize=6320 / nal_hrd=vbr / filler=0 / NTMzNTQ=LmsMAP37EqsCpk / ip_ratio=1.40 / aq=1:1.00

  41. Default : Yes

  42. Forced : No


  43. Audio

  44. ID : 2

  45. Format : E-AC-3

  46. Format/Info : Enhanced AC-3

  47. Commercial name : Dolby Digital Plus

  48. Codec ID : A_EAC3

  49. Duration : 2 h 11 min

  50. Bit rate mode : Constant

  51. Bit rate : 640 kb/s

  52. Channel(s) : 6 channels

  53. Channel layout : L R C LFE Ls Rs

  54. Sampling rate : 48.0 kHz

  55. Frame rate : 31.250 FPS (1536 SPF)

  56. Compression mode : Lossy

  57. Stream size : 602 MiB (22%)

  58. Title : Japanese

  59. Language : Japanese

  60. Service kind : Complete Main

  61. Default : Yes

  62. Forced : No


  63. Text #1

  64. ID : 3

  65. Format : UTF-8

  66. Codec ID : S_TEXT/UTF8

  67. Codec ID/Info : UTF-8 Plain Text

  68. Duration : 2 h 10 min

  69. Bit rate : 38 b/s

  70. Count of elements : 1192

  71. Stream size : 36.7 KiB (0%)

  72. Title : English

  73. Language : English

  74. Default : Yes

  75. Forced : No


  76. Text #2

  77. ID : 4

  78. Format : UTF-8

  79. Codec ID : S_TEXT/UTF8

  80. Codec ID/Info : UTF-8 Plain Text

  81. Duration : 2 h 10 min

  82. Bit rate : 59 b/s

  83. Count of elements : 1196

  84. Stream size : 57.3 KiB (0%)

  85. Title : Arabic

  86. Language : Arabic

  87. Default : No

  88. Forced : No


  89. Text #3

  90. ID : 5

  91. Format : UTF-8

  92. Codec ID : S_TEXT/UTF8

  93. Codec ID/Info : UTF-8 Plain Text

  94. Duration : 2 h 10 min

  95. Bit rate : 32 b/s

  96. Count of elements : 1216

  97. Stream size : 30.9 KiB (0%)

  98. Title : Chinese Simplified

  99. Language : Chinese

  100. Default : No

  101. Forced : No


  102. Text #4

  103. ID : 6

  104. Format : UTF-8

  105. Codec ID : S_TEXT/UTF8

  106. Codec ID/Info : UTF-8 Plain Text

  107. Duration : 2 h 10 min

  108. Bit rate : 32 b/s

  109. Count of elements : 1228

  110. Stream size : 31.5 KiB (0%)

  111. Title : Chinese Traditional

  112. Language : Chinese

  113. Default : No

  114. Forced : No


  115. Text #5

  116. ID : 7

  117. Format : UTF-8

  118. Codec ID : S_TEXT/UTF8

  119. Codec ID/Info : UTF-8 Plain Text

  120. Duration : 2 h 10 min

  121. Bit rate : 34 b/s

  122. Count of elements : 1194

  123. Stream size : 33.4 KiB (0%)

  124. Title : Croatian

  125. Language : Croatian

  126. Default : No

  127. Forced : No


  128. Text #6

  129. ID : 8

  130. Format : UTF-8

  131. Codec ID : S_TEXT/UTF8

  132. Codec ID/Info : UTF-8 Plain Text

  133. Duration : 2 h 10 min

  134. Bit rate : 37 b/s

  135. Count of elements : 1195

  136. Stream size : 35.8 KiB (0%)

  137. Title : Czech

  138. Language : Czech

  139. Default : No

  140. Forced : No


  141. Text #7

  142. ID : 9

  143. Format : UTF-8

  144. Codec ID : S_TEXT/UTF8

  145. Codec ID/Info : UTF-8 Plain Text

  146. Duration : 2 h 10 min

  147. Bit rate : 38 b/s

  148. Count of elements : 1194

  149. Stream size : 37.0 KiB (0%)

  150. Title : Danish

  151. Language : Danish

  152. Default : No

  153. Forced : No


  154. Text #8

  155. ID : 10

  156. Format : UTF-8

  157. Codec ID : S_TEXT/UTF8

  158. Codec ID/Info : UTF-8 Plain Text

  159. Duration : 2 h 10 min

  160. Bit rate : 36 b/s

  161. Count of elements : 1188

  162. Stream size : 34.4 KiB (0%)

  163. Title : Dutch

  164. Language : Dutch

  165. Default : No

  166. Forced : No


  167. Text #9

  168. ID : 11

  169. Format : UTF-8

  170. Codec ID : S_TEXT/UTF8

  171. Codec ID/Info : UTF-8 Plain Text

  172. Duration : 2 h 10 min

  173. Bit rate : 38 b/s

  174. Count of elements : 1195

  175. Stream size : 36.4 KiB (0%)

  176. Title : Finnish

  177. Language : Finnish

  178. Default : No

  179. Forced : No


  180. Text #10

  181. ID : 12

  182. Format : UTF-8

  183. Codec ID : S_TEXT/UTF8

  184. Codec ID/Info : UTF-8 Plain Text

  185. Duration : 2 h 10 min

  186. Bit rate : 39 b/s

  187. Count of elements : 1190

  188. Stream size : 38.2 KiB (0%)

  189. Title : French

  190. Language : French

  191. Default : No

  192. Forced : No


  193. Text #11

  194. ID : 13

  195. Format : UTF-8

  196. Codec ID : S_TEXT/UTF8

  197. Codec ID/Info : UTF-8 Plain Text

  198. Duration : 2 h 10 min

  199. Bit rate : 40 b/s

  200. Count of elements : 1194

  201. Stream size : 39.0 KiB (0%)

  202. Title : German

  203. Language : German

  204. Default : No

  205. Forced : No


  206. Text #12

  207. ID : 14

  208. Format : UTF-8

  209. Codec ID : S_TEXT/UTF8

  210. Codec ID/Info : UTF-8 Plain Text

  211. Duration : 2 h 10 min

  212. Bit rate : 64 b/s

  213. Count of elements : 1194

  214. Stream size : 61.5 KiB (0%)

  215. Title : Greek

  216. Language : Greek

  217. Default : No

  218. Forced : No


  219. Text #13

  220. ID : 15

  221. Format : UTF-8

  222. Codec ID : S_TEXT/UTF8

  223. Codec ID/Info : UTF-8 Plain Text

  224. Duration : 2 h 10 min

  225. Bit rate : 55 b/s

  226. Count of elements : 1196

  227. Stream size : 53.1 KiB (0%)

  228. Title : Hebrew

  229. Language : Hebrew

  230. Default : No

  231. Forced : No


  232. Text #14

  233. ID : 16

  234. Format : UTF-8

  235. Codec ID : S_TEXT/UTF8

  236. Codec ID/Info : UTF-8 Plain Text

  237. Duration : 2 h 10 min

  238. Bit rate : 36 b/s

  239. Count of elements : 1194

  240. Stream size : 35.1 KiB (0%)

  241. Title : Hungarian

  242. Language : Hungarian

  243. Default : No

  244. Forced : No


  245. Text #15

  246. ID : 17

  247. Format : UTF-8

  248. Codec ID : S_TEXT/UTF8

  249. Codec ID/Info : UTF-8 Plain Text

  250. Duration : 2 h 10 min

  251. Bit rate : 38 b/s

  252. Count of elements : 1195

  253. Stream size : 37.2 KiB (0%)

  254. Title : Indonesian

  255. Language : Indonesian

  256. Default : No

  257. Forced : No


  258. Text #16

  259. ID : 18

  260. Format : UTF-8

  261. Codec ID : S_TEXT/UTF8

  262. Codec ID/Info : UTF-8 Plain Text

  263. Duration : 2 h 10 min

  264. Bit rate : 37 b/s

  265. Count of elements : 1194

  266. Stream size : 36.1 KiB (0%)

  267. Title : Italian

  268. Language : Italian

  269. Default : No

  270. Forced : No


  271. Text #17

  272. ID : 19

  273. Format : UTF-8

  274. Codec ID : S_TEXT/UTF8

  275. Codec ID/Info : UTF-8 Plain Text

  276. Duration : 2 h 11 min

  277. Bit rate : 51 b/s

  278. Count of elements : 1378

  279. Stream size : 49.4 KiB (0%)

  280. Title : Japanese

  281. Language : Japanese

  282. Default : No

  283. Forced : No


  284. Text #18

  285. ID : 20

  286. Format : UTF-8

  287. Codec ID : S_TEXT/UTF8

  288. Codec ID/Info : UTF-8 Plain Text

  289. Duration : 2 h 10 min

  290. Bit rate : 38 b/s

  291. Count of elements : 1195

  292. Stream size : 36.9 KiB (0%)

  293. Title : Malay

  294. Language : Malay

  295. Default : No

  296. Forced : No


  297. Text #19

  298. ID : 21

  299. Format : UTF-8

  300. Codec ID : S_TEXT/UTF8

  301. Codec ID/Info : UTF-8 Plain Text

  302. Duration : 2 h 10 min

  303. Bit rate : 36 b/s

  304. Count of elements : 1193

  305. Stream size : 35.1 KiB (0%)

  306. Title : Norwegian Bokmal

  307. Language : Norwegian Bokmal

  308. Default : No

  309. Forced : No


  310. Text #20

  311. ID : 22

  312. Format : UTF-8

  313. Codec ID : S_TEXT/UTF8

  314. Codec ID/Info : UTF-8 Plain Text

  315. Duration : 2 h 10 min

  316. Bit rate : 36 b/s

  317. Count of elements : 1195

  318. Stream size : 34.5 KiB (0%)

  319. Title : Polish

  320. Language : Polish

  321. Default : No

  322. Forced : No


  323. Text #21

  324. ID : 23

  325. Format : UTF-8

  326. Codec ID : S_TEXT/UTF8

  327. Codec ID/Info : UTF-8 Plain Text

  328. Duration : 2 h 10 min

  329. Bit rate : 39 b/s

  330. Count of elements : 1187

  331. Stream size : 37.7 KiB (0%)

  332. Title : Portuguese

  333. Language : Portuguese

  334. Default : No

  335. Forced : No


  336. Text #22

  337. ID : 24

  338. Format : UTF-8

  339. Codec ID : S_TEXT/UTF8

  340. Codec ID/Info : UTF-8 Plain Text

  341. Duration : 2 h 10 min

  342. Bit rate : 37 b/s

  343. Count of elements : 1193

  344. Stream size : 35.5 KiB (0%)

  345. Title : Brazilian Portuguese

  346. Language : Portuguese

  347. Default : No

  348. Forced : No


  349. Text #23

  350. ID : 25

  351. Format : UTF-8

  352. Codec ID : S_TEXT/UTF8

  353. Codec ID/Info : UTF-8 Plain Text

  354. Duration : 2 h 10 min

  355. Bit rate : 38 b/s

  356. Count of elements : 1193

  357. Stream size : 36.9 KiB (0%)

  358. Title : Romanian

  359. Language : Romanian

  360. Default : No

  361. Forced : No


  362. Text #24

  363. ID : 26

  364. Format : UTF-8

  365. Codec ID : S_TEXT/UTF8

  366. Codec ID/Info : UTF-8 Plain Text

  367. Duration : 2 h 10 min

  368. Bit rate : 62 b/s

  369. Count of elements : 1195

  370. Stream size : 59.7 KiB (0%)

  371. Title : Russian

  372. Language : Russian

  373. Default : No

  374. Forced : No


  375. Text #25

  376. ID : 27

  377. Format : UTF-8

  378. Codec ID : S_TEXT/UTF8

  379. Codec ID/Info : UTF-8 Plain Text

  380. Duration : 2 h 10 min

  381. Bit rate : 38 b/s

  382. Count of elements : 1190

  383. Stream size : 36.7 KiB (0%)

  384. Title : Spanish

  385. Language : Spanish

  386. Default : No

  387. Forced : No


  388. Text #26

  389. ID : 28

  390. Format : UTF-8

  391. Codec ID : S_TEXT/UTF8

  392. Codec ID/Info : UTF-8 Plain Text

  393. Duration : 2 h 10 min

  394. Bit rate : 38 b/s

  395. Count of elements : 1188

  396. Stream size : 36.4 KiB (0%)

  397. Title : European Spanish

  398. Language : Spanish

  399. Default : No

  400. Forced : No


  401. Text #27

  402. ID : 29

  403. Format : UTF-8

  404. Codec ID : S_TEXT/UTF8

  405. Codec ID/Info : UTF-8 Plain Text

  406. Duration : 2 h 10 min

  407. Bit rate : 37 b/s

  408. Count of elements : 1195

  409. Stream size : 36.3 KiB (0%)

  410. Title : Swedish

  411. Language : Swedish

  412. Default : No

  413. Forced : No


  414. Text #28

  415. ID : 30

  416. Format : UTF-8

  417. Codec ID : S_TEXT/UTF8

  418. Codec ID/Info : UTF-8 Plain Text

  419. Duration : 2 h 10 min

  420. Bit rate : 87 b/s

  421. Count of elements : 1196

  422. Stream size : 83.9 KiB (0%)

  423. Title : Thai

  424. Language : Thai

  425. Default : No

  426. Forced : No


  427. Text #29

  428. ID : 31

  429. Format : UTF-8

  430. Codec ID : S_TEXT/UTF8

  431. Codec ID/Info : UTF-8 Plain Text

  432. Duration : 2 h 10 min

  433. Bit rate : 38 b/s

  434. Count of elements : 1195

  435. Stream size : 37.2 KiB (0%)

  436. Title : Turkish

  437. Language : Turkish

  438. Default : No

  439. Forced : No


  440. Text #30

  441. ID : 32

  442. Format : UTF-8

  443. Codec ID : S_TEXT/UTF8

  444. Codec ID/Info : UTF-8 Plain Text

  445. Duration : 2 h 10 min

  446. Bit rate : 61 b/s

  447. Count of elements : 1196

  448. Stream size : 58.4 KiB (0%)

  449. Title : Ukrainian

  450. Language : Ukrainian

  451. Default : No

  452. Forced : No


  453. Text #31

  454. ID : 33

  455. Format : UTF-8

  456. Codec ID : S_TEXT/UTF8

  457. Codec ID/Info : UTF-8 Plain Text

  458. Duration : 2 h 10 min

  459. Bit rate : 51 b/s

  460. Count of elements : 1196

  461. Stream size : 49.4 KiB (0%)

  462. Title : Vietnamese

  463. Language : Vietnamese

  464. Default : No

  465. Forced : No




复制代码



文件下载


除非特别注明,本文『杀手寓言 第二章[中文字幕].The.FABLE.The.Killer.Who.Doesnt.Kill.2021.1080p.NF.WEB-DL.DDP5.1.x264-bt9527 2.62GB』来源于互联网机器人自动抓取,非本站原创。 浮游电影网不对本文拥有版权,如有侵犯,请联系邮箱:fuyouu#yandex.com[#换成@]投诉。我们会在15个工作日内删除。 但烦请转载时请标明出处:“本文转载于『浮游电影网』,原文地址:https://www.fuyouu.com/18922.html

评论吧骚年!

发表你的见解   

昵称*

E-mail*(建议输入,以便收到博主回复的提示邮件)

验证码*

您可以使用eMule或eMule Mod(Windows)、aMule(Win、Linux、Mac)等软件下载eD2k链接。。
eMule收藏集(.emulecollection)文件是您选中的所有链接的列表文件。eMule可以直接下载它们。
按住SHIFT键选择可以选中多个选择框。
可用文件名和大小选择器来选择文件。
文件名选择器帮您根据文件名称或后缀来选择文件。不分大小写。
符号使用:
和:空格( )、+
不包含:-
或:|
转义:一对英文引号("");
匹配开头:^
匹配结尾:$
例如:
选中所有名称中包含有“eMule”或“0.49c”字眼,但不包含有“exe”字眼的:emule|0.49c -exe
选中所有名称的开头是“eMule”,结尾是“0.49c”的:^emule 0.49c$
选中所有名称中带有“eMule 0.49c”的(必须是“eMule 0.49c”,中间没有别的字符,不能是“eMule fake 0.49c”),需要转义:"emule 0.49c"
大小选择器帮您根据文件大小选择文件。