当前位置: 首页 >> 日韩电影 >> 四月的长久梦[中文字幕].Summer.Blooms.2018.1080p.WEB-DL.H264.AAC-bt9527.com 2.50GB >> 正文

四月的长久梦[中文字幕].Summer.Blooms.2018.1080p.WEB-DL.H264.AAC-bt9527.com 2.50GB

2021年11月20日 22:38:36     电影发布:来源于网络     电影分类:日韩电影     评论(0)    

四月的长久梦[中文字幕].Summer.Blooms.2018.1080p.WEB DL.H264.AAC bt9527.com 2.50GB 剧情片 日韩电影  第1张

◎译 名 四月的长久梦 / 櫻花下我記得(台) / Summer Blooms

◎片 名 四月の永い夢

◎年 代 2017

◎产 地 日本

◎类 别 剧情

◎语 言 日语

◎上映日期 2017-06-24(莫斯科电影节) / 2018-05-12(日本)

◎IMDb链接 https://www.imdb.com/title/tt7085058/

◎豆瓣评分 7.2/10 (920人评价)

◎豆瓣链接 https://movie.douban.com/subject/27064212/

◎片 长 93分钟

◎导 演 中川龙太郎 Ry?tar? Nakagawa (id:1399438)

◎编 剧 中川龙太郎 Ry?tar? Nakagawa (id:1399438)

◎演 员 朝仓亚纪 Aki Asakura (id:1275810)

三浦贵大 Takahiro Miura (id:1315155)

川崎ゆり子 (id:1410811)

高桥由美子 Yumiko Takahashi (id:1016388)

青柳文子 Fumiko Aoyagi (id:1336520)

志贺广太郎 Kotaro Shiga (id:1274743)

高桥惠子 Keiko Takahashi (id:1008347)

◎标 签 日本 / 温情 / 日式生活 / 文艺 / 爱情 / 2018 / 剧情 / 映画

◎简 介

三年前失去恋人的27岁的泷本初海(朝仓亚纪 饰)。辞去教职,在餐馆打工,过著无欲无求的生活。在没有改变的日常生活中,偶然收到了一叶书信。一位名叫藤太郎(三浦贵大 饰)染布师傅每日前来餐馆,默默地关注著她。夏日烟花祭典那夜,她受邀前往染布工坊参观,在斑斓的花布下,生命的欲望也悄悄被唤醒。从以前学生的久违再会,初海自己隐藏的思念。以一叶信为契机,没有改变的盛夏的日常生活一点一点开始变化。以内敛的影像风格捕捉了生者的细密情绪,清淡而悠长。

  1. ##### MediaInfo ######

  2. General

  3. Unique ID : 189287479189777847770563514536316097400 (0x8E677142E3F2EB33F3FACE0DF20BD378)

  4. Complete name : Summer.Blooms.2018.1080p.WEB-DL.H264.AAC-1[email protected]

  5. Format : Matroska

  6. Format version : Version 4

  7. File size : 2.50 GiB

  8. Duration : 1 h 28 min

  9. Overall bit rate : 4 018 kb/s

  10. Encoded date : UTC 2021-11-19 13:04:31

  11. Writing application : mkvmerge v56.1.0 ('My Friend') 64-bit

  12. Writing library : libebml v1.4.2 + libmatroska v1.6.4


  13. Video

  14. ID : 1

  15. Format : AVC

  16. Format/Info : Advanced Video Codec

  17. Format profile : [email protected]

  18. Format settings : CABAC / 1 Ref Frames

  19. Format settings, CABAC : Yes

  20. Format settings, Reference frames : 1 frame

  21. Format settings, GOP : M=1, N=60

  22. Codec ID : V_MPEG4/ISO/AVC

  23. Duration : 1 h 28 min

  24. Bit rate mode : Constant

  25. Bit rate : 4 000 kb/s

  26. Width : 1 920 pixels

  27. Height : 1 080 pixels

  28. Display aspect ratio : 16:9

  29. Frame rate mode : Constant

  30. Frame rate : 29.970 (30000/1001/53354) FPS

  31. Color space : YUV

  32. Chroma subsampling : 4:2:0

  33. Bit depth : 8 bits

  34. Scan type : Progressive

  35. Bits/(Pixel*Frame) : 0.064

  36. Stream size : 2.42 GiB (97%)

  37. Language : English

  38. Default : Yes

  39. Forced : No


  40. Audio

  41. ID : 2

  42. Format : AAC LC

  43. Format/Info : Advanced Audio Codec Low Complexity

  44. Codec ID : A_AAC-2

  45. Duration : 1 h 28 min

  46. Bit rate : 125 kb/s

  47. Channel(s) : 2 channels

  48. Channel layout : L R

  49. Sampling rate : 48.0 kHz

  50. Frame rate : 46.875 FPS (1024 SPF)

  51. Compression mode : Lossy

  52. Stream size : 79.8 MiB (3%)

  53. Title : Japanese

  54. Language : Japanese

  55. Default : Yes

  56. Forced : No


  57. Text #1

  58. ID : 3

  59. Format : UTF-8

  60. Codec ID : S_TEXT/UTF8

  61. Codec ID/Info : UTF-8 Plain Text

  62. Duration : 1 h 27 min

  63. Bit rate : 35 b/s

  64. Count of elements : 1009

  65. Stream size : 22.9 KiB (0%)

  66. Title : Chinese Simplified

  67. Language : Chinese

  68. Default : Yes

  69. Forced : No


  70. Text #2

  71. ID : 4

  72. Format : UTF-8

  73. Codec ID : S_TEXT/UTF8

  74. Codec ID/Info : UTF-8 Plain Text

  75. Duration : 1 h 27 min

  76. Bit rate : 35 b/s

  77. Count of elements : 1009

  78. Stream size : 22.9 KiB (0%)

  79. Title : Chinese Traditional

  80. Language : Chinese

  81. Default : No

  82. Forced : No




复制代码



文件下载


除非特别注明,本文『四月的长久梦[中文字幕].Summer.Blooms.2018.1080p.WEB-DL.H264.AAC-bt9527.com 2.50GB』来源于互联网机器人自动抓取,非本站原创。 浮游电影网不对本文拥有版权,如有侵犯,请联系邮箱:fuyouu#yandex.com[#换成@]投诉。我们会在15个工作日内删除。 但烦请转载时请标明出处:“本文转载于『浮游电影网』,原文地址:https://www.fuyouu.com/18921.html

评论吧骚年!

发表你的见解   

昵称*

E-mail*(建议输入,以便收到博主回复的提示邮件)

验证码*

您可以使用eMule或eMule Mod(Windows)、aMule(Win、Linux、Mac)等软件下载eD2k链接。。
eMule收藏集(.emulecollection)文件是您选中的所有链接的列表文件。eMule可以直接下载它们。
按住SHIFT键选择可以选中多个选择框。
可用文件名和大小选择器来选择文件。
文件名选择器帮您根据文件名称或后缀来选择文件。不分大小写。
符号使用:
和:空格( )、+
不包含:-
或:|
转义:一对英文引号("");
匹配开头:^
匹配结尾:$
例如:
选中所有名称中包含有“eMule”或“0.49c”字眼,但不包含有“exe”字眼的:emule|0.49c -exe
选中所有名称的开头是“eMule”,结尾是“0.49c”的:^emule 0.49c$
选中所有名称中带有“eMule 0.49c”的(必须是“eMule 0.49c”,中间没有别的字符,不能是“eMule fake 0.49c”),需要转义:"emule 0.49c"
大小选择器帮您根据文件大小选择文件。