当前位置: 首页 >> 海外电影 >> Weekend[中文字幕].Weekend.2020.1080p.WEB-DL.H264.AAC-bt9527.cc 2.29GB >> 正文

Weekend[中文字幕].Weekend.2020.1080p.WEB-DL.H264.AAC-bt9527.cc 2.29GB

2021年11月20日 22:37:27     电影发布:来源于网络     电影分类:海外电影     评论(0)    

Weekend[中文字幕].Weekend.2020.1080p.WEB DL.H264.AAC bt9527.cc 2.29GB 惊悚片 剧情片 海外电影  第1张

◎译 名 Weekend

◎年 代 2020

◎产 地 意大利 / 阿尔巴尼亚

◎类 别 剧情 / 惊悚

◎IMDb链接 https://www.imdb.com/title/tt10276160/

◎豆瓣链接 https://movie.douban.com/subject/34982706/

◎演 员 洛伦佐·祖佐洛 Lorenzo Zurzolo (id:1228663)

雅各波·奥尔莫·安蒂诺里 Jacopo Olmo Antinori (id:1329945)

欧吉尼奥·弗兰切斯基尼 Eugenio Franceschini (id:1419474)

◎标 签 意大利 / 悬疑 / 剧情 / 2021

◎简 介

In Weekend he pulls himself out of the complex, built and confident individual of modern world, the brada, animal part, the atavistic drive to life, motion rough and crude of a body that tries to save its continuity and face to this disproportionate effort, the splendid and terrible spark of the primordio that moves every instinct: to survive.

  1. ##### MediaInfo ######

  2. General

  3. Unique ID : 225175346600880552510814533281687903300 (0xA96731BC0C64B18B6F13115D72F59C44)

  4. Complete name : [email protected]

  5. Format : Matroska

  6. Format version : Version 4

  7. File size : 2.29 GiB

  8. Duration : 1 h 24 min

  9. Overall bit rate : 3 870 kb/s

  10. Encoded date : UTC 2021-11-19 14:05:33

  11. Writing application : mkvmerge v56.1.0 ('My Friend') 64-bit

  12. Writing library : libebml v1.4.2 + libmatroska v1.6.4


  13. Video

  14. ID : 1

  15. Format : AVC

  16. Format/Info : Advanced Video Codec

  17. Format profile : [email protected]

  18. Format settings : CABAC / 1 Ref Frames

  19. Format settings, CABAC : Yes

  20. Format settings, Reference frames : 1 frame

  21. Format settings, GOP : M=1, N=60

  22. Codec ID : V_MPEG4/ISO/AVC

  23. Duration : 1 h 24 min

  24. Bit rate mode : Constant

  25. Bit rate : 3 742 kb/s

  26. Nominal bit rate : 4 000 kb/s

  27. Width : 1 920 pixels

  28. Height : 1 080 pixels

  29. Display aspect ratio : 16:9

  30. Frame rate mode : Constant

  31. Frame rate : 29.970 (30000/1001/53354) FPS

  32. Color space : YUV

  33. Chroma subsampling : 4:2:0

  34. Bit depth : 8 bits

  35. Scan type : Progressive

  36. Bits/(Pixel*Frame) : 0.060

  37. Stream size : 2.21 GiB (97%)

  38. Language : English

  39. Default : Yes

  40. Forced : No


  41. Audio

  42. ID : 2

  43. Format : AAC LC

  44. Format/Info : Advanced Audio Codec Low Complexity

  45. Codec ID : A_AAC-2

  46. Duration : 1 h 24 min

  47. Bit rate : 125 kb/s

  48. Channel(s) : 2 channels

  49. Channel layout : L R

  50. Sampling rate : 48.0 kHz

  51. Frame rate : 46.875 FPS (1024 SPF)

  52. Compression mode : Lossy

  53. Stream size : 76.0 MiB (3%)

  54. Title : Italian

  55. Language : Italian

  56. Default : Yes

  57. Forced : No


  58. Text #1

  59. ID : 3

  60. Format : UTF-8

  61. Codec ID : S_TEXT/UTF8

  62. Codec ID/Info : UTF-8 Plain Text

  63. Duration : 1 h 20 min

  64. Bit rate : 34 b/s

  65. Count of elements : 851

  66. Stream size : 20.5 KiB (0%)

  67. Title : Chinese Simplified

  68. Language : Chinese

  69. Default : Yes

  70. Forced : No


  71. Text #2

  72. ID : 4

  73. Format : UTF-8

  74. Codec ID : S_TEXT/UTF8

  75. Codec ID/Info : UTF-8 Plain Text

  76. Duration : 1 h 20 min

  77. Bit rate : 34 b/s

  78. Count of elements : 851

  79. Stream size : 20.5 KiB (0%)

  80. Title : Chinese Traditional

  81. Language : Chinese

  82. Default : No

  83. Forced : No




复制代码



文件下载


除非特别注明,本文『Weekend[中文字幕].Weekend.2020.1080p.WEB-DL.H264.AAC-bt9527.cc 2.29GB』来源于互联网机器人自动抓取,非本站原创。 浮游电影网不对本文拥有版权,如有侵犯,请联系邮箱:fuyouu#yandex.com[#换成@]投诉。我们会在15个工作日内删除。 但烦请转载时请标明出处:“本文转载于『浮游电影网』,原文地址:https://www.fuyouu.com/18920.html

评论吧骚年!

发表你的见解   

昵称*

E-mail*(建议输入,以便收到博主回复的提示邮件)

验证码*

您可以使用eMule或eMule Mod(Windows)、aMule(Win、Linux、Mac)等软件下载eD2k链接。。
eMule收藏集(.emulecollection)文件是您选中的所有链接的列表文件。eMule可以直接下载它们。
按住SHIFT键选择可以选中多个选择框。
可用文件名和大小选择器来选择文件。
文件名选择器帮您根据文件名称或后缀来选择文件。不分大小写。
符号使用:
和:空格( )、+
不包含:-
或:|
转义:一对英文引号("");
匹配开头:^
匹配结尾:$
例如:
选中所有名称中包含有“eMule”或“0.49c”字眼,但不包含有“exe”字眼的:emule|0.49c -exe
选中所有名称的开头是“eMule”,结尾是“0.49c”的:^emule 0.49c$
选中所有名称中带有“eMule 0.49c”的(必须是“eMule 0.49c”,中间没有别的字符,不能是“eMule fake 0.49c”),需要转义:"emule 0.49c"
大小选择器帮您根据文件大小选择文件。