当前位置: 首页 >> 海外电影 >> 圣母[简繁字幕].Benedetta.2021.BluRay.1080p.DTS-HD.MA5.1.x265.10bit-bt9527.cc 10.06GB >> 正文

圣母[简繁字幕].Benedetta.2021.BluRay.1080p.DTS-HD.MA5.1.x265.10bit-bt9527.cc 10.06GB

2021年11月20日 22:34:04     电影发布:来源于网络     电影分类:海外电影     评论(0)    

圣母[简繁字幕].Benedetta.2021.BluRay.1080p.DTS HD.MA5.1.x265.10bit bt9527.cc 10.06GB 同性 冒险片 剧情片 海外电影  第1张

◎译 名 圣母 / 圣欲(港 / 台) / 圣母玛利亚 / 贝内黛塔 / Sainte Vierge / Blessed Virgin

◎片 名 Benedetta

◎年 代 2021

◎产 地 法国 / 荷兰

◎类 别 剧情 / 同性 / 历史

◎语 言 法语

◎上映日期 2021-07-09(法国/戛纳电影节) / 2021-12-03(美国/美国网络)

◎IMDb链接 https://www.imdb.com/title/tt6823148/

◎豆瓣评分 8.0/10 (4561人评价)

◎豆瓣链接 https://movie.douban.com/subject/26933588/

◎片 长 131分钟

◎导 演 保罗·范霍文 Paul Verhoeven (id:1055953)

◎编 剧 保罗·范霍文 Paul Verhoeven (id:1055953)

大卫·伯克 David Birke (id:1357685)

◎演 员 维尔日妮·埃菲拉 Virginie Efira (id:1187894)

夏洛特·兰普林 Charlotte Rampling (id:1007020)

达芙妮·帕塔基亚 Daphné Patakia (id:1392252)

朗贝尔·维尔森 Lambert Wilson (id:1025263)

奥利维尔·雷堡汀 Olivier Rabourdin (id:1275015)

埃尔韦·皮埃尔 Hervé Pierre (id:1344275)

克洛蒂尔·蔻洛 Clotilde Courau (id:1000606)

安托万·利兰达斯 Antoine Lelandais (id:1428797)

吉莱纳·隆代 Guilaine Londez (id:1114858)

路易丝·舍维约特 Louise Chevillotte (id:1381078)

塞特雅·杜索戈 Satya Dusaugey (id:1407393)

萨义德·本·萨义德 Sa?d Ben Sa?d (id:1402733)

安妮·达德莉 Anne Dudley (id:1048431)

珍妮·拉波瓦里 Jeanne Lapoirie (id:1338368)

约伯特·博格 Job ter Burg (id:1051101)

Katia Wyszkop Katia Wyszkop (id:1300118)

Pierre-Jean Larroque Pierre-Jean Larroque (id:1289458)

◎标 签 同性 / 法国 / LGBT / 法国电影 / 情色 / 保罗·范霍文 / 历史 / 人性

◎简 介

改编17世纪意大利修女真实事迹。贝妮迪塔自小在修道院长大,在神的圣宠下,她不但能见神圣异象,身上更出现圣痕。一日,修道院收留了年轻野性的见习修女,贝妮迪塔在她的挑逗下初试肉体的欢愉,复感神圣的大爱。然而,小小的修道院无法容纳她日渐高涨的权欲和情欲,她声称的神迹也招来质疑,教廷派人远道前来调查,一场权力斗争在瘟疫阴霾下蓄势待发。《她》名导保罗·范霍汶挑动道德底线,赤裸地重现一个奇女子的情欲、信仰和胆识,大胆批判教会的贪欲和虚伪。

◎获奖情况 (共1项)

第74届戛纳电影节 (2021)

主竞赛单元 金棕榈奖(提名)

└──保罗·范霍文 (id:1055953)

  1. ##### MediaInfo ######

  2. General

  3. Unique ID : 68453046627862401883808933699785841166 (0x337F93C53F742FE2EF787FDFEB1FDA0E)

  4. Complete name : [email protected].COM.mkv

  5. Format : Matroska

  6. Format version : Version 4

  7. File size : 10.1 GiB

  8. Duration : 2 h 11 min

  9. Overall bit rate mode : Variable

  10. Overall bit rate : 11.0 Mb/s

  11. Encoded date : UTC 2021-11-19 15:33:32

  12. Writing application : mkvmerge v49.0.0 ('Sick Of Losing Soulmates') 64-bit

  13. Writing library : libebml v1.4.0 + libmatroska v1.6.1


  14. Video

  15. ID : 1

  16. Format : HEVC

  17. Format/Info : High Efficiency Video Coding

  18. Format profile : Main [email protected]@High

  19. Codec ID : V_MPEGH/ISO/HEVC

  20. Duration : 2 h 11 min

  21. Bit rate : 7 275 kb/s

  22. Width : 1 920 pixels

  23. Height : 804 pixels

  24. Display aspect ratio : 2.40:1

  25. Frame rate mode : Constant

  26. Frame rate : 23.976 (24000/1001/53354) FPS

  27. Color space : YUV

  28. Chroma subsampling : 4:2:0

  29. Bit depth : 10 bits

  30. Bits/(Pixel*Frame) : 0.197

  31. Stream size : 6.67 GiB (66%)

  32. Title : HEVC, [email protected]@High, 24/1.001 fps @ 7275 kbps

  33. Writing library : x265 3.4+14-gd419c7152:[Windows][GCC 10.2.0][64 bit] 10bit

  34. Encoding settings : cpuid=533541111039 / frame-threads=4 / numa-pools=20 / wpp / pmode / pme / no-psnr / no-ssim / log-level=2 / input-csp=1 / input-res=1920x804 / interlace=0 / total-frames=188784 / level-idc=51 / high-tier=1 / uhd-bd=0 / ref=5 / no-allow-non-conformance / no-repeat-headers / annexb / no-aud / no-hrd / info / hash=0 / no-temporal-layers / open-gop / min-keyint=24 / keyint=240 / gop-lookahead=0 / bframes=6 / b-adapt=2 / b-pyramid / bframe-bias=0 / rc-lookahead=40 / lookahead-slices=0 / NTMzNTQ=uuDQuD2mJt9fsCf / scenecut=40 / hist-scenecut=0 / radl=0 / no-splice / no-intra-refresh / ctu=32 / min-cu-size=8 / no-rect / no-amp / max-tu-size=32 / tu-inter-depth=3 / tu-intra-depth=3 / limit-tu=4 / rdoq-level=2 / dynamic-rd=0.00 / no-ssim-rd / signhide / no-tskip / nr-intra=0 / nr-inter=0 / no-constrained-intra / no-strong-intra-smoothing / max-merge=4 / limit-refs=1 / limit-modes / me=3 / subme=4 / merange=25 / temporal-mvp / no-frame-dup / no-hme / weightp / weightb / no-analyze-src-pics / deblock=-3:-3 / no-sao / no-sao-non-deblock / rd=6 / selective-sao=0 / no-early-skip / rskip / no-fast-intra / no-tskip-fast / no-cu-lossless / b-intra / no-splitrd-skip / rdpenalty=0 / psy-rd=2.00 / psy-rdoq=1.00 / no-rd-refine / no-lossless / cbqpoffs=0 / crqpoffs=0 / rc=crf / crf=17.0 / qcomp=0.65 / qpstep=4 / stats-write=0 / stats-read=0 / vbv-maxrate=80000 / vbv-bufsize=80000 / vbv-init=0.9 / crf-max=0.0 / crf-min=0.0 / ipratio=1.40 / pbratio=1.30 / aq-mode=2 / aq-strength=0.85 / cutree / zone-count=0 / no-strict-cbr / qg-size=32 / no-rc-grain / qpmax=69 / qpmin=0 / no-const-vbv / sar=1 / overscan=0 / videoformat=5 / range=0 / colorprim=1 / transfer=1 / colormatrix=1 / chromaloc=0 / display-window=0 / cll=0,0 / min-luma=0 / max-luma=1023 / log2-max-poc-lsb=8 / vui-timing-info / vui-hrd-info / slices=1 / no-opt-qp-pps / no-opt-ref-list-length-pps / no-multi-pass-opt-rps / scenecut-bias=0.05 / hist-threshold=0.03 / no-opt-cu-delta-qp / no-aq-motion / no-hdr10 / no-hdr10-opt / no-dhdr10-opt / no-idr-recovery-sei / analysis-reuse-level=0 / analysis-save-reuse-level=0 / analysis-load-reuse-level=0 / scale-factor=0 / refine-intra=0 / refine-inter=0 / refine-mv=1 / refine-ctu-distortion=0 / no-limit-sao / ctu-info=0 / no-lowpass-dct / refine-analysis-type=0 / copy-pic=1 / max-ausize-factor=1.0 / no-dynamic-refine / no-single-sei / no-hevc-aq / no-svt / no-field / qp-adaptation-range=1.00 / no-scenecut-aware-qpconformance-window-offsets / right=0 / bottom=0 / NTMzNTQ= / decoder-max-rate=0

  35. Language : English

  36. Default : Yes

  37. Forced : No

  38. Color range : Limited

  39. Color primaries : BT.709

  40. Transfer characteristics : BT.709

  41. Matrix coefficients : BT.709


  42. Audio

  43. ID : 2

  44. Format : DTS XLL

  45. Format/Info : Digital Theater Systems

  46. Commercial name : DTS-HD Master Audio

  47. Codec ID : A_DTS

  48. Duration : 2 h 11 min

  49. Bit rate mode : Variable

  50. Bit rate : 3 642 kb/s

  51. Channel(s) : 6 channels

  52. Channel layout : C L R Ls Rs LFE

  53. Sampling rate : 48.0 kHz

  54. Frame rate : 93.750 FPS (512 SPF)

  55. Bit depth : 24 bits

  56. Compression mode : Lossless

  57. Stream size : 3.34 GiB (33%)

  58. Title : French DTS-HD Master Audio 5.1 @ 3642 kbps

  59. Language : French

  60. Default : Yes

  61. Forced : No


  62. Text #1

  63. ID : 3

  64. Format : PGS

  65. Codec ID : S_HDMV/PGS

  66. Codec ID/Info : Picture based subtitle format used on BDs/HD-DVDs

  67. Duration : 2 h 4 min

  68. Bit rate : 27.4 kb/s

  69. Count of elements : 1887

  70. Stream size : 24.5 MiB (0%)

  71. Title : Chs/SUP 简体

  72. Language : Chinese

  73. Default : Yes

  74. Forced : No


  75. Text #2

  76. ID : 4

  77. Format : PGS

  78. Codec ID : S_HDMV/PGS

  79. Codec ID/Info : Picture based subtitle format used on BDs/HD-DVDs

  80. Duration : 2 h 4 min

  81. Bit rate : 28.3 kb/s

  82. Count of elements : 1887

  83. Stream size : 25.3 MiB (0%)

  84. Title : Cht/SUP 繁体

  85. Language : Chinese

  86. Default : No

  87. Forced : No


  88. Menu

  89. 00:00:00.000 : en:第 01 章

  90. 00:11:27.061 : en:第 02 章

  91. 00:24:16.121 : en:第 03 章

  92. 00:33:50.487 : en:第 04 章

  93. 00:44:56.235 : en:第 05 章

  94. 00:56:07.364 : en:第 06 章

  95. 01:07:42.600 : en:第 07 章

  96. 01:22:42.749 : en:第 08 章

  97. 01:32:29.836 : en:第 09 章

  98. 01:43:45.010 : en:第 10 章

  99. 01:54:00.375 : en:第 11 章

  100. 02:06:00.428 : en:第 12 章




复制代码




文件下载



除非特别注明,本文『圣母[简繁字幕].Benedetta.2021.BluRay.1080p.DTS-HD.MA5.1.x265.10bit-bt9527.cc 10.06GB』来源于互联网机器人自动抓取,非本站原创。 浮游电影网不对本文拥有版权,如有侵犯,请联系邮箱:fuyouu#yandex.com[#换成@]投诉。我们会在15个工作日内删除。 但烦请转载时请标明出处:“本文转载于『浮游电影网』,原文地址:https://www.fuyouu.com/18918.html

评论吧骚年!

发表你的见解   

昵称*

E-mail*(建议输入,以便收到博主回复的提示邮件)

验证码*

您可以使用eMule或eMule Mod(Windows)、aMule(Win、Linux、Mac)等软件下载eD2k链接。。
eMule收藏集(.emulecollection)文件是您选中的所有链接的列表文件。eMule可以直接下载它们。
按住SHIFT键选择可以选中多个选择框。
可用文件名和大小选择器来选择文件。
文件名选择器帮您根据文件名称或后缀来选择文件。不分大小写。
符号使用:
和:空格( )、+
不包含:-
或:|
转义:一对英文引号("");
匹配开头:^
匹配结尾:$
例如:
选中所有名称中包含有“eMule”或“0.49c”字眼,但不包含有“exe”字眼的:emule|0.49c -exe
选中所有名称的开头是“eMule”,结尾是“0.49c”的:^emule 0.49c$
选中所有名称中带有“eMule 0.49c”的(必须是“eMule 0.49c”,中间没有别的字符,不能是“eMule fake 0.49c”),需要转义:"emule 0.49c"
大小选择器帮您根据文件大小选择文件。