当前位置: 首页 >> 海外电影 >> 开往印度之船[中文字幕].A.Ship.to.India.1947.CC.BluRay.1080p.x265.10bit.FLAC.MNHD-bt9527.cc 4.79GB >> 正文

开往印度之船[中文字幕].A.Ship.to.India.1947.CC.BluRay.1080p.x265.10bit.FLAC.MNHD-bt9527.cc 4.79GB

2021年11月20日 22:32:56     电影发布:来源于网络     电影分类:海外电影     评论(0)    

开往印度之船[中文字幕].A.Ship.to.India.1947.CC.BluRay.1080p.x265.10bit.FLAC.MNHD bt9527.cc 4.79GB 剧情片 海外电影  第1张

◎译 名 开往印度之船 / 欲望岛 / A Ship Bound for India

◎片 名 Skepp till India land

◎年 代 1947

◎产 地 瑞典

◎类 别 剧情

◎语 言 瑞典语

◎上映日期 1947-09-22(瑞典)

◎IMDb链接 https://www.imdb.com/title/tt0039834/

◎豆瓣评分 6.4/10 (270人评价)

◎豆瓣链接 https://movie.douban.com/subject/2213735/

◎片 长 98分钟

◎导 演 英格玛·伯格曼 Ingmar Bergman (id:1054526)

◎编 剧 英格玛·伯格曼 Ingmar Bergman (id:1054526)

马丁·瑟德耶尔姆 Martin S?derhjelm (id:1003302)

◎演 员 霍尔格·洛文纳德勒 Holger L?wenadler (id:1115083)

安娜·林达尔 Anna Lindahl (id:1121024)

比耶·马尔姆斯滕 Birger Malmsten (id:1117450)

耶特鲁德·弗里德 Gertrud Fridh (id:1038597)

内米·布里泽 Naemi Briese (id:1077613)

约迪丝·彼得松 Hj?rdis Petterson (id:1127972)

拉塞·克兰茨 Lasse Krantz (id:1104132)

扬·莫兰德 Jan Molander (id:1124757)

埃里克·黑尔 Erik Hell (id:1098930)

奥克·弗里德尔 ?ke Fridell (id:1088876)

道格拉斯·霍格 Douglas H?ge (id:1106217)

Ami Aar?e Ami Aar?e (id:1055482)

托尔尼·安德伯格 Torgny Anderberg (id:1056388)

英格玛·伯格曼 Ingmar Bergman (id:1054526)

Rolf Bergstr?m Rolf Bergstr?m (id:1066803)

John W. Bj?rling John W. Bj?rling (id:1061265)

Ingrid Borthen Ingrid Borthen (id:1065983)

Gustaf Hiort af Orn?s Gustaf Hiort af Orn?s (id:1101486)

Svea Holst Svea Holst (id:1101546)

基基 Kiki (id:1027662)

乌诺·拉松 Uno Larsson (id:1109522)

彼得·林德格伦 Peter Lindgren (id:1116265)

Gunnar Nielsen Gunnar Nielsen (id:1135345)

Charles White Charles White (id:1165679)

Lorens Marmstedt Lorens Marmstedt (id:1043870)

Erland von Koch Erland von Koch (id:1048823)

戈兰·斯特林堡 G?ran Strindberg (id:1017052)

◎标 签 瑞典 / 英格玛·伯格曼 / IngmarBergman / 1947 / 1940s / 黑白 / 瑞典电影 / Ingmar_Bergman

◎简 介

Sailor Johannes Blom returns to his home port, after seven years at sea, to find that Sally, the girl he has been thinking of while away, is completely despondent. Seven years earlier, obstreperous Alexander Blom, brings his mistress Sally to live with him, his wife Alice, son Johannes, and crew, aboard the salvage boat he captains. Amidst all the tensions on the small boat, Jo...

◎获奖情况 (共1项)

第2届戛纳电影节 (1947)

主竞赛单元(提名)

└──英格玛·伯格曼 (id:1054526)

  1. ##### MediaInfo ######

  2. General

  3. Unique ID : 5146395538345139719418836343988786522 (0x3DF28E3E35880551F7D4A24DA35955A)

  4. Complete name : [email protected]BBQDDQ.COM.mkv

  5. Format : Matroska

  6. Format version : Version 4

  7. File size : 4.79 GiB

  8. Duration : 1 h 35 min

  9. Overall bit rate mode : Variable

  10. Overall bit rate : 7 142 kb/s

  11. Movie name : A Ship to India 1947 CC BluRay 1080p - FRDS

  12. Encoded date : UTC 2021-11-19 14:48:49

  13. Writing application : mkvmerge v62.0.0 ('Apollo') 64-bit

  14. Writing library : libebml v1.4.2 + libmatroska v1.6.4


  15. Video

  16. ID : 1

  17. Format : HEVC

  18. Format/Info : High Efficiency Video Coding

  19. Format profile : Main [email protected]@High

  20. Codec ID : V_MPEGH/ISO/HEVC

  21. Duration : 1 h 35 min

  22. Bit rate : 6 527 kb/s

  23. Width : 1 484 pixels

  24. Height : 1 080 pixels

  25. Display aspect ratio : 1.374

  26. Frame rate mode : Constant

  27. Frame rate : 23.976 (24000/1001/53354) FPS

  28. Color space : YUV

  29. Chroma subsampling : 4:2:0

  30. Bit depth : 10 bits

  31. Bits/(Pixel*Frame) : 0.170

  32. Stream size : 4.38 GiB (91%)

  33. Writing library : x265 3.1+2-g764455672+26:[Windows][GCC 8.3.0][64 bit] Yuuki 10bit+8bit+12bit

  34. Encoding settings : rc=crf / crf=24.0000 / qcomp=0.65 / qpstep=4 / stats-write=0 / stats-read=0 / vbv-maxrate=40000 / vbv-bufsize=40000 / vbv-init=0.9 / crf-max=0.0 / crf-min=0.0 / no-lossless / no-cu-lossless / aq-mode=1 / aq-strength=0.80 / cbqpoffs=-3 / crqpoffs=-3 / ipratio=1.40 / pbratio=1.30 / psy-rd=2.00 / psy-rdoq=5.00 / deblock=-1:-1 / ref=5 / limit-refs=1 / limit-modes / bframes=8 / b-adapt=2 / bframe-bias=0 / b-pyramid / b-intra / weightp / weightb / min-keyint=23 / max-keyint=240 / rc-lookahead=60 / gop-lookahead=0 / NTMzNTQ=uuDQuD2mJt9fsCf / scenecut=40 / radl=0 / max-cu-size=32 / min-cu-size=8 / me=3 / subme=4 / merange=25 / rdoq-level=1 / rd=4 / rdpenalty=1 / dynamic-rd=0.00 / no-rd-refine / ----- / no-cutree / no-sao / no-rect / no-amp / no-open-gop / wpp / pmode / pme / no-psnr / no-ssim / nr-intra=0 / nr-inter=0 / no-constrained-intra / no-strong-intra-smoothing / max-tu-size=16 / tu-inter-depth=2 / tu-intra-depth=2 / limit-tu=0 / qg-size=8 / qpmax=69 / qpmin=0 / ----- / cpuid=533541111039 / frame-threads=6 / numa-pools=16,32 / log-level=2 / csv / csv-log-level=0 / input-csp=1 / input-res=1484x1080 / interlace=0 / level-idc=0 / high-tier=1 / uhd-bd=0 / no-allow-non-conformance / no-repeat-headers / no-aud / no-hrd / info / hash=0 / no-temporal-layers / lookahead-slices=0 / no-splice / no-intra-refresh / no-ssim-rd / signhide / no-tskip / max-merge=5 / temporal-mvp / no-analyze-src-pics / no-sao-non-deblock / no-early-skip / rskip / no-fast-intra / no-tskip-fast / no-splitrd-skip / zone-count=0 / no-strict-cbr / no-rc-grain / no-const-vbv / sar=0 / overscan=0 / videoformat=5 / range=0 / colorprim=1 / transfer=1 / colormatrix=1 / chromaloc=0 / display-window=0cll=0,0 / min-luma=0 / max-luma=1023 / log2-max-poc-lsb=8 / vui-timing-info / vui-hrd-info / slices=1 / no-opt-qp-pps / no-opt-ref-list-length-pps / no-multi-pass-opt-rps / scenecut-bias=0.05 / no-opt-cu-delta-qp / no-aq-motion / no-hdr / no-hdr-opt / no-dhdr10-opt / no-idr-recovery-sei / analysis-reuse-level=5 / scale-factor=0 / refine-intra=0 / refine-inter=0 / refine-mv=0 / refine-ctu-distortion=0 / no-limit-sao / ctu-info=0 / no-lowpass-dct / refine-analysis-type=0 / copy-pic=1 / max-ausize-factor=1.0 / no-dynamic-refine / no-single-sei / no-hevc-aq / no-svt / no-field / qp-adaptation-range=1.00

  35. Default : Yes

  36. Forced : No

  37. Color range : Limited

  38. Color primaries : BT.709

  39. Transfer characteristics : BT.709

  40. Matrix coefficients : BT.709


  41. Audio

  42. ID : 2

  43. Format : FLAC

  44. Format/Info : Free Lossless Audio Codec

  45. Codec ID : A_FLAC

  46. Duration : 1 h 35 min

  47. Bit rate mode : Variable

  48. Bit rate : 554 kb/s

  49. Channel(s) : 1 channel

  50. Channel layout : C

  51. Sampling rate : 48.0 kHz

  52. Frame rate : 11.719 FPS (4096 SPF)

  53. Bit depth : 24 bits

  54. Compression mode : Lossless

  55. Stream size : 381 MiB (8%)

  56. Writing library : libFLAC 1.2.1 (UTC 2007-09-17)

  57. Language : Swedish

  58. Default : Yes

  59. Forced : No


  60. Text #1

  61. ID : 3

  62. Format : UTF-8

  63. Codec ID : S_TEXT/UTF8

  64. Codec ID/Info : UTF-8 Plain Text

  65. Duration : 1 h 35 min

  66. Bit rate : 44 b/s

  67. Count of elements : 981

  68. Stream size : 30.8 KiB (0%)

  69. Language : English

  70. Default : Yes

  71. Forced : No


  72. Text #2

  73. ID : 4

  74. Format : PGS

  75. Muxing mode : zlib

  76. Codec ID : S_HDMV/PGS

  77. Codec ID/Info : Picture based subtitle format used on BDs/HD-DVDs

  78. Duration : 1 h 35 min

  79. Bit rate : 38.8 kb/s

  80. Count of elements : 1962

  81. Stream size : 26.4 MiB (1%)

  82. Language : English

  83. Default : No

  84. Forced : No


  85. Text #3

  86. ID : 5

  87. Format : PGS

  88. Muxing mode : zlib

  89. Codec ID : S_HDMV/PGS

  90. Codec ID/Info : Picture based subtitle format used on BDs/HD-DVDs

  91. Duration : 1 h 34 min

  92. Bit rate : 20.3 kb/s

  93. Count of elements : 1342

  94. Stream size : 13.7 MiB (0%)

  95. Title : CHS

  96. Language : Chinese

  97. Default : Yes

  98. Forced : No


  99. Text #4

  100. ID : 6

  101. Format : PGS

  102. Muxing mode : zlib

  103. Codec ID : S_HDMV/PGS

  104. Codec ID/Info : Picture based subtitle format used on BDs/HD-DVDs

  105. Duration : 1 h 34 min

  106. Bit rate : 21.2 kb/s

  107. Count of elements : 1342

  108. Stream size : 14.3 MiB (0%)

  109. Title : CHT

  110. Language : Chinese

  111. Default : Yes

  112. Forced : No


  113. Text #5

  114. ID : 7

  115. Format : PGS

  116. Muxing mode : zlib

  117. Codec ID : S_HDMV/PGS

  118. Codec ID/Info : Picture based subtitle format used on BDs/HD-DVDs

  119. Duration : 1 h 34 min

  120. Bit rate : 20.4 kb/s

  121. Count of elements : 1342

  122. Stream size : 13.8 MiB (0%)

  123. Title : CHS

  124. Language : Chinese

  125. Default : Yes

  126. Forced : No


  127. Text #6

  128. ID : 8

  129. Format : PGS

  130. Muxing mode : zlib

  131. Codec ID : S_HDMV/PGS

  132. Codec ID/Info : Picture based subtitle format used on BDs/HD-DVDs

  133. Duration : 1 h 34 min

  134. Bit rate : 21.2 kb/s

  135. Count of elements : 1342

  136. Stream size : 14.4 MiB (0%)

  137. Title : CHT

  138. Language : Chinese

  139. Default : Yes

  140. Forced : No


  141. Menu

  142. 00:00:00.000 : en:00:00:00.000

  143. 00:06:03.196 : en:00:06:03.196

  144. 00:11:10.670 : en:00:11:10.670

  145. 00:14:06.304 : en:00:14:06.304

  146. 00:18:48.544 : en:00:18:48.544

  147. 00:27:03.038 : en:00:27:03.038

  148. 00:30:37.836 : en:00:30:37.836

  149. 00:36:03.453 : en:00:36:03.453

  150. 00:42:06.149 : en:00:42:06.149

  151. 00:47:37.688 : en:00:47:37.688

  152. 00:51:32.506 : en:00:51:32.506

  153. 00:58:05.774 : en:00:58:05.774

  154. 01:02:26.034 : en:01:02:26.034

  155. 01:06:17.724 : en:01:06:17.724

  156. 01:09:40.676 : en:01:09:40.676

  157. 01:15:36.949 : en:01:15:36.949

  158. 01:20:24.361 : en:01:20:24.361

  159. 01:24:46.373 : en:01:24:46.373

  160. 01:29:07.759 : en:01:29:07.759




复制代码




文件下载


除非特别注明,本文『开往印度之船[中文字幕].A.Ship.to.India.1947.CC.BluRay.1080p.x265.10bit.FLAC.MNHD-bt9527.cc 4.79GB』来源于互联网机器人自动抓取,非本站原创。 浮游电影网不对本文拥有版权,如有侵犯,请联系邮箱:fuyouu#yandex.com[#换成@]投诉。我们会在15个工作日内删除。 但烦请转载时请标明出处:“本文转载于『浮游电影网』,原文地址:https://www.fuyouu.com/18917.html

评论吧骚年!

发表你的见解   

昵称*

E-mail*(建议输入,以便收到博主回复的提示邮件)

验证码*

您可以使用eMule或eMule Mod(Windows)、aMule(Win、Linux、Mac)等软件下载eD2k链接。。
eMule收藏集(.emulecollection)文件是您选中的所有链接的列表文件。eMule可以直接下载它们。
按住SHIFT键选择可以选中多个选择框。
可用文件名和大小选择器来选择文件。
文件名选择器帮您根据文件名称或后缀来选择文件。不分大小写。
符号使用:
和:空格( )、+
不包含:-
或:|
转义:一对英文引号("");
匹配开头:^
匹配结尾:$
例如:
选中所有名称中包含有“eMule”或“0.49c”字眼,但不包含有“exe”字眼的:emule|0.49c -exe
选中所有名称的开头是“eMule”,结尾是“0.49c”的:^emule 0.49c$
选中所有名称中带有“eMule 0.49c”的(必须是“eMule 0.49c”,中间没有别的字符,不能是“eMule fake 0.49c”),需要转义:"emule 0.49c"
大小选择器帮您根据文件大小选择文件。