当前位置: 首页 >> 国产电影 >> 崂山道士[国语配音/中文字幕].Lao.Mountain.Taoist.2021.1080p.WEB-DL.H265.DDP2.0-bt9527.cc 1.34GB >> 正文

崂山道士[国语配音/中文字幕].Lao.Mountain.Taoist.2021.1080p.WEB-DL.H265.DDP2.0-bt9527.cc 1.34GB

2021年11月20日 22:24:51     电影发布:来源于网络     电影分类:国产电影     评论(0)    

崂山道士[国语配音/中文字幕].Lao.Mountain.Taoist.2021.1080p.WEB DL.H265.DDP2.0 bt9527.cc 1.34GB 古装片 奇幻片 国产电影  第1张

◎译 名 崂山道士

◎年 代 2021

◎产 地 中国大陆

◎类 别 奇幻 / 古装

◎上映日期 2021-11-18(中国大陆)

◎IMDb链接 https://www.imdb.com/title//

◎豆瓣链接 https://movie.douban.com/subject/35295445/

◎导 演 罗乐 Le Luo (id:1393344)

◎标 签 大陆 / 半路 / 无感 / 剧情 / 60 / 2021

◎简 介

一心想要修习崂山道法的轻狂少年王生,在众人的质疑之下执意踏上问道之旅。经历几番波折,终获高人指点与同门伙伴的支持。在解开身世之谜、坚定本心后,王生终于开悟。他决定用属于自己的方式,对抗妖道玄真!

  1. ##### MediaInfo ######

  2. General

  3. Unique ID : 36455766465164808814958387560626786018 (0x1B6D200EF2A126A7F4BD8EFB91480EE2)

  4. Complete name : 崂山道士[email protected]COM.mkv

  5. Format : Matroska

  6. Format version : Version 4

  7. File size : 1.34 GiB

  8. Duration : 1 h 24 min

  9. Overall bit rate : 2 269 kb/s

  10. Encoded date : UTC 2021-11-19 10:18:19

  11. Writing application : mkvmerge v61.0.0 ('So') 64-bit

  12. Writing library : libebml v1.4.2 + libmatroska v1.6.4


  13. Video

  14. ID : 1

  15. Format : HEVC

  16. Format/Info : High Efficiency Video Coding

  17. Format profile : [email protected]@Main

  18. Codec ID : V_MPEGH/ISO/HEVC

  19. Duration : 1 h 24 min

  20. Bit rate : 2 171 kb/s

  21. Width : 1 920 pixels

  22. Height : 816 pixels

  23. Display aspect ratio : 2.35:1

  24. Frame rate mode : Constant

  25. Frame rate : 24.000 FPS

  26. Color space : YUV

  27. Chroma subsampling : 4:2:0

  28. Bit depth : 8 bits

  29. Bits/(Pixel*Frame) : 0.058

  30. Stream size : 1.28 GiB (96%)

  31. Default : Yes

  32. Forced : No


  33. Audio

  34. ID : 2

  35. Format : E-AC-3

  36. Format/Info : Enhanced AC-3

  37. Commercial name : Dolby Digital Plus

  38. Codec ID : A_EAC3

  39. Duration : 1 h 24 min

  40. Bit rate mode : Constant

  41. Bit rate : 96.0 kb/s

  42. Channel(s) : 2 channels

  43. Channel layout : L R

  44. Sampling rate : 48.0 kHz

  45. Frame rate : 31.250 FPS (1536 SPF)

  46. Compression mode : Lossy

  47. Stream size : 57.9 MiB (4%)

  48. Service kind : Complete Main

  49. Default : Yes

  50. Forced : No




复制代码



文件下载


除非特别注明,本文『崂山道士[国语配音/中文字幕].Lao.Mountain.Taoist.2021.1080p.WEB-DL.H265.DDP2.0-bt9527.cc 1.34GB』来源于互联网机器人自动抓取,非本站原创。 浮游电影网不对本文拥有版权,如有侵犯,请联系邮箱:fuyouu#yandex.com[#换成@]投诉。我们会在15个工作日内删除。 但烦请转载时请标明出处:“本文转载于『浮游电影网』,原文地址:https://www.fuyouu.com/18911.html

评论吧骚年!

发表你的见解   

昵称*

E-mail*(建议输入,以便收到博主回复的提示邮件)

验证码*

您可以使用eMule或eMule Mod(Windows)、aMule(Win、Linux、Mac)等软件下载eD2k链接。。
eMule收藏集(.emulecollection)文件是您选中的所有链接的列表文件。eMule可以直接下载它们。
按住SHIFT键选择可以选中多个选择框。
可用文件名和大小选择器来选择文件。
文件名选择器帮您根据文件名称或后缀来选择文件。不分大小写。
符号使用:
和:空格( )、+
不包含:-
或:|
转义:一对英文引号("");
匹配开头:^
匹配结尾:$
例如:
选中所有名称中包含有“eMule”或“0.49c”字眼,但不包含有“exe”字眼的:emule|0.49c -exe
选中所有名称的开头是“eMule”,结尾是“0.49c”的:^emule 0.49c$
选中所有名称中带有“eMule 0.49c”的(必须是“eMule 0.49c”,中间没有别的字符,不能是“eMule fake 0.49c”),需要转义:"emule 0.49c"
大小选择器帮您根据文件大小选择文件。