当前位置: 首页 >> 海外电影 >> 85年盛夏[中文字幕].Summer.of.85.2020.BluRay.1080p.DTS-HD.5.1.x265.10bit-bt9527.cc 8.70GB >> 正文

85年盛夏[中文字幕].Summer.of.85.2020.BluRay.1080p.DTS-HD.5.1.x265.10bit-bt9527.cc 8.70GB

2021年11月20日 22:23:06     电影发布:来源于网络     电影分类:海外电影     评论(0)    

85年盛夏[中文字幕].Summer.of.85.2020.BluRay.1080p.DTS HD.5.1.x265.10bit bt9527.cc 8.70GB 同性 剧情片 海外电影  第1张

◎译 名 85年盛夏 / 八五盛夏 / 85年的夏天(台) / 八四盛夏 / Summer of 85 / Summer of 84 / Eté 84

◎片 名 Eté 85

◎年 代 2020

◎产 地 法国 / 比利时

◎类 别 剧情 / 同性

◎语 言 法语

◎上映日期 2020-07-14(法国)

◎IMDb链接 https://www.imdb.com/title/tt10457128/

◎豆瓣评分 6.9/10 (12359人评价)

◎豆瓣链接 https://movie.douban.com/subject/33974174/

◎片 长 100分钟

◎导 演 弗朗索瓦·欧容 Fran?ois Ozon (id:1053578)

◎编 剧 艾丹·钱伯斯 Aidan Chambers (id:1444483)

弗朗索瓦·欧容 Fran?ois Ozon (id:1053578)

◎演 员 菲利克斯·勒费弗尔 Félix Lefebvre (id:1437476)

本杰明·瓦赞 Benjamin Voisin (id:1402589)

菲莉皮娜·维莱芝 Philippine Velge (id:1433679)

瓦莱丽亚·布鲁尼·泰德斯基 Valeria Bruni Tedeschi (id:1041252)

梅尔维尔·珀波 Melvil Poupaud (id:1004891)

伊莎贝尔·南蒂 Isabelle Nanty (id:1007192)

洛朗·费尔南德斯 Laurent Fernandez (id:1444484)

奥罗拉·布鲁坦 Aurore Broutin (id:1260842)

布鲁诺·洛歇 Bruno Lochet (id:1125526)

约恩·齐默 Yoann Zimmer (id:1444485)

安托万·西蒙尼 Antoine Simoni (id:1444486)

帕特里克·齐默尔曼 Patrick Zimmermann (id:1444487)

塞缪尔·博拉夫曼-芒蒂尔 Samuel Brafman-Moutier (id:1370585)

◎标 签 同性 / 法国 / 青春 / 爱情 / 2020 / 夏天 / 文艺 / 成长

◎简 介

亚历克西斯(菲利克斯·勒费弗尔 Félix Lefebvre 饰)是一位精力旺盛,向往自由的少年。一天,在独自出海的过程中,亚历克西斯遭遇了意外,所幸得到了大卫(本杰明·沃辛 Benjamin Voisin 饰)的出手相救才逃过了一劫。这次事件让两个少年迅速建立了深厚的友谊,他们一个放荡不羁古灵精怪,一个沉着稳重心思细腻,简直就是天作之合。

然而,当一个名叫凯特(菲莉皮娜·维莱芝 Philippine Velge 饰)的女孩出现在两人的生活中时,亚历克西斯和大卫之间的关系开始慢慢出现裂痕。在一次激烈的争吵中,亚历克西斯负气出走,不放心他的大卫驱车在后面追赶,哪知道因此遭遇了车祸命丧黄泉。

◎获奖情况 (共15项)

第73届戛纳电影节 (2020)

入选过戛纳导演作品(提名)

第33届欧洲电影奖 (2020)

最佳导演(提名)

└──弗朗索瓦·欧容 (id:1053578)

第46届法国凯撒电影奖 (2021)

最佳影片(提名)

最佳导演(提名)

└──弗朗索瓦·欧容 (id:1053578)

最佳女配角(提名)

└──瓦莱丽亚·布鲁尼·泰德斯基 (id:1041252)

最佳新人男演员(提名)

最佳改编剧本(提名)

最佳摄影(提名)

最佳剪辑(提名)

最佳原创音乐(提名)

最佳音效(提名)

最佳服装(提名)

最佳布景(提名)

第68届圣塞巴斯蒂安国际电影节 (2020)

金贝壳奖(提名)

└──弗朗索瓦·欧容 (id:1053578)

第24届美国在线影评人协会奖 (2021)

最佳非北美上映影片

  1. ##### MediaInfo ######

  2. General

  3. Unique ID : 134027957848676569831865906491588290673 (0x64D4D8827473A887AF8DCDB2DB0F2871)

  4. Complete name : [email protected]Q.COM.mkv

  5. Format : Matroska

  6. Format version : Version 4

  7. File size : 8.70 GiB

  8. Duration : 1 h 41 min

  9. Overall bit rate mode : Variable

  10. Overall bit rate : 12.2 Mb/s

  11. Encoded date : UTC 2021-11-19 09:59:19

  12. Writing application : mkvmerge v60.0.0 ('Are We Copies?') 64-bit

  13. Writing library : libebml v1.4.2 + libmatroska v1.6.4


  14. Video

  15. ID : 1

  16. Format : HEVC

  17. Format/Info : High Efficiency Video Coding

  18. Format profile : Main [email protected]@Main

  19. Codec ID : V_MPEGH/ISO/HEVC

  20. Duration : 1 h 41 min

  21. Bit rate : 8 690 kb/s

  22. Width : 1 920 pixels

  23. Height : 1 036 pixels

  24. Display aspect ratio : 1.85:1

  25. Frame rate mode : Constant

  26. Frame rate : 24.000 FPS

  27. Color space : YUV

  28. Chroma subsampling : 4:2:0

  29. Bit depth : 10 bits

  30. Bits/(Pixel*Frame) : 0.182

  31. Stream size : 6.18 GiB (71%)

  32. Writing library : x265 3.5+11-c8905a745:[Windows][MSVC 1929][64 bit] 10bit

  33. Encoding settings : cpuid=533541111039 / frame-threads=4 / numa-pools=16 / wpp / no-pmode / pme / no-psnr / no-ssim / log-level=2 / input-csp=1 / input-res=1920x1036 / interlace=0 / total-frames=0 / level-idc=0 / high-tier=1 / uhd-bd=0 / ref=6 / no-allow-non-conformance / repeat-headers / annexb / no-aud / no-eob / no-eos / no-hrd / info / hash=0 / no-temporal-layers / no-open-gop / min-keyint=24 / keyint=250 / gop-lookahead=0 / bframes=8 / b-adapt=2 / b-pyramid / bframe-bias=0 / rc-lookahead=57 / lookahead-slices=6 / NTMzNTQ=uuDQuD2mJt9fsCf / scenecut=40 / no-hist-scenecut / radl=0 / no-splice / no-intra-refresh / ctu=64 / min-cu-size=8 / no-rect / no-amp / max-tu-size=32 / tu-inter-depth=1 / tu-intra-depth=1 / limit-tu=0 / rdoq-level=0 / dynamic-rd=0.00 / no-ssim-rd / signhide / no-tskip / nr-intra=0 / nr-inter=0 / no-constrained-intra / no-strong-intra-smoothing / max-merge=3 / limit-refs=1 / no-limit-modes / me=2 / subme=7 / merange=57 / temporal-mvp / no-frame-dup / no-hme / weightp / weightb / no-analyze-src-pics / deblock=0:0 / sao / no-sao-non-deblock / rd=4 / selective-sao=4 / early-skip / rskip / no-fast-intra / no-tskip-fast / no-cu-lossless / b-intra / no-splitrd-skip / rdpenalty=0 / psy-rd=2.00 / psy-rdoq=0.00 / no-rd-refine / no-lossless / cbqpoffs=0 / crqpoffs=0 / rc=crf / crf=16.0 / qcomp=0.60 / qpstep=4 / stats-write=0 / stats-read=0 / ipratio=1.40 / pbratio=1.30 / aq-mode=4 / aq-strength=1.00 / cutree / zone-count=0 / no-strict-cbr / qg-size=32 / no-rc-grain / qpmax=69 / qpmin=0 / no-const-vbv / sar=0 / overscan=0 / videoformat=5 / range=0 / colorprim=2 / transfer=2 / colormatrix=2 / chromaloc=0 / display-window=0 / cll=0,0 / min-luma=0 / max-luma=1023 / log2-max-poc-lsb=8 / vui-timing-info / vui-hrd-info / slices=1 / no-opt-qp-pps / no-opt-ref-list-length-pps / no-multi-pass-opt-rps / scenecut-bias=0.05 / hist-threshold=0.03 / no-opt-cu-delta-qp / aq-motion / no-hdr10 / no-hdr10-opt / no-dhdr10-opt / no-idr-recovery-sei / analysis-reuse-level=0 / analysis-save-reuse-level=0 / analysis-load-reuse-level=0 / scale-factor=0 / refine-intra=0 / refine-inter=0 / refine-mv=1 / refine-ctu-distortion=0 / no-limit-sao / ctu-info=0 / no-lowpass-dct / refine-analysis-type=0 / copy-pic=1 / max-ausize-factor=1.0 / no-dynamic-refine / no-single-sei / no-hevc-aq / no-svt / no-field / qp-adaptation-range=1.00 / scenecut-aware-qp=0conformance-window-offsets / right=0 / bottom=0 / NTMzNTQ= / decoder-max-rate=0 / no-vbv-live-multi-pass

  34. Default : Yes

  35. Forced : No


  36. Audio

  37. ID : 2

  38. Format : DTS XLL

  39. Format/Info : Digital Theater Systems

  40. Commercial name : DTS-HD Master Audio

  41. Codec ID : A_DTS

  42. Duration : 1 h 41 min

  43. Bit rate mode : Variable

  44. Bit rate : 3 455 kb/s

  45. Channel(s) : 6 channels

  46. Channel layout : C L R Ls Rs LFE

  47. Sampling rate : 48.0 kHz

  48. Frame rate : 93.750 FPS (512 SPF)

  49. Bit depth : 24 bits

  50. Compression mode : Lossless

  51. Stream size : 2.46 GiB (28%)

  52. Default : Yes

  53. Forced : No


  54. Text #1

  55. ID : 3

  56. Format : PGS

  57. Muxing mode : zlib

  58. Codec ID : S_HDMV/PGS

  59. Codec ID/Info : Picture based subtitle format used on BDs/HD-DVDs

  60. Duration : 1 h 40 min

  61. Bit rate : 26.4 kb/s

  62. Count of elements : 2905

  63. Stream size : 19.0 MiB (0%)

  64. Title : 简体

  65. Language : Chinese

  66. Default : Yes

  67. Forced : No


  68. Text #2

  69. ID : 4

  70. Format : PGS

  71. Muxing mode : zlib

  72. Codec ID : S_HDMV/PGS

  73. Codec ID/Info : Picture based subtitle format used on BDs/HD-DVDs

  74. Duration : 1 h 40 min

  75. Bit rate : 27.2 kb/s

  76. Count of elements : 2905

  77. Stream size : 19.6 MiB (0%)

  78. Title : 繁体

  79. Language : Chinese

  80. Default : Yes

  81. Forced : No


  82. Text #3

  83. ID : 5

  84. Format : PGS

  85. Muxing mode : zlib

  86. Codec ID : S_HDMV/PGS

  87. Codec ID/Info : Picture based subtitle format used on BDs/HD-DVDs

  88. Duration : 1 h 40 min

  89. Bit rate : 41.1 kb/s

  90. Count of elements : 2905

  91. Stream size : 29.6 MiB (0%)

  92. Title : 简英

  93. Language : Chinese

  94. Default : Yes

  95. Forced : No


  96. Text #4

  97. ID : 6

  98. Format : PGS

  99. Muxing mode : zlib

  100. Codec ID : S_HDMV/PGS

  101. Codec ID/Info : Picture based subtitle format used on BDs/HD-DVDs

  102. Duration : 1 h 40 min

  103. Bit rate : 41.9 kb/s

  104. Count of elements : 2905

  105. Stream size : 30.2 MiB (0%)

  106. Title : 繁英

  107. Language : Chinese

  108. Default : Yes

  109. Forced : No


  110. Text #5

  111. ID : 7

  112. Format : PGS

  113. Muxing mode : zlib

  114. Codec ID : S_HDMV/PGS

  115. Codec ID/Info : Picture based subtitle format used on BDs/HD-DVDs

  116. Duration : 1 h 40 min

  117. Bit rate : 23.0 kb/s

  118. Count of elements : 2896

  119. Stream size : 16.6 MiB (0%)

  120. Title : 英语

  121. Language : English

  122. Default : Yes

  123. Forced : No


  124. Menu

  125. 00:00:00.000 : :第 01 章

  126. 00:06:23.917 : :第 02 章

  127. 00:14:28.000 : :第 03 章

  128. 00:22:37.917 : :第 04 章

  129. 00:27:59.792 : :第 05 章

  130. 00:35:48.292 : :第 06 章

  131. 00:42:10.417 : :第 07 章

  132. 00:47:30.583 : :第 08 章

  133. 00:54:30.750 : :第 09 章

  134. 01:01:19.833 : :第 10 章

  135. 01:06:28.167 : :第 11 章

  136. 01:11:16.458 : :第 12 章

  137. 01:20:45.875 : :第 13 章

  138. 01:26:35.917 : :第 14 章

  139. 01:30:48.542 : :第 15 章

  140. 01:37:56.375 : :第 16 章




复制代码



文件下载


除非特别注明,本文『85年盛夏[中文字幕].Summer.of.85.2020.BluRay.1080p.DTS-HD.5.1.x265.10bit-bt9527.cc 8.70GB』来源于互联网机器人自动抓取,非本站原创。 浮游电影网不对本文拥有版权,如有侵犯,请联系邮箱:fuyouu#yandex.com[#换成@]投诉。我们会在15个工作日内删除。 但烦请转载时请标明出处:“本文转载于『浮游电影网』,原文地址:https://www.fuyouu.com/18910.html

评论吧骚年!

发表你的见解   

昵称*

E-mail*(建议输入,以便收到博主回复的提示邮件)

验证码*

您可以使用eMule或eMule Mod(Windows)、aMule(Win、Linux、Mac)等软件下载eD2k链接。。
eMule收藏集(.emulecollection)文件是您选中的所有链接的列表文件。eMule可以直接下载它们。
按住SHIFT键选择可以选中多个选择框。
可用文件名和大小选择器来选择文件。
文件名选择器帮您根据文件名称或后缀来选择文件。不分大小写。
符号使用:
和:空格( )、+
不包含:-
或:|
转义:一对英文引号("");
匹配开头:^
匹配结尾:$
例如:
选中所有名称中包含有“eMule”或“0.49c”字眼,但不包含有“exe”字眼的:emule|0.49c -exe
选中所有名称的开头是“eMule”,结尾是“0.49c”的:^emule 0.49c$
选中所有名称中带有“eMule 0.49c”的(必须是“eMule 0.49c”,中间没有别的字符,不能是“eMule fake 0.49c”),需要转义:"emule 0.49c"
大小选择器帮您根据文件大小选择文件。