当前位置: 首页 >> 欧美电影 >> 倒数时刻[中文字幕].2021.1080p.NF.WEB-DL.x264.DDP5.1-Atmos-bt9527.cc 7.39GB >> 正文

倒数时刻[中文字幕].2021.1080p.NF.WEB-DL.x264.DDP5.1-Atmos-bt9527.cc 7.39GB

2021年11月20日 22:21:47     电影发布:来源于网络     电影分类:欧美电影     评论(0)    

倒数时刻[中文字幕].2021.1080p.NF.WEB DL.x264.DDP5.1 Atmos bt9527.cc 7.39GB 歌舞 传记 剧情片 欧美电影  第1张

◎译 名 倒数时刻 / 滴答,滴答……轰隆隆

◎片 名 Tick, Tick…Boom!

◎年 代 2021

◎产 地 美国

◎类 别 剧情 / 歌舞 / 传记

◎语 言 英语

◎上映日期 2021-11-10(美国电影学会电影节) / 2021-11-12(美国) / 2021-11-19(美国网络)

◎IMDb链接 https://www.imdb.com/title/tt8721424/

◎豆瓣链接 https://movie.douban.com/subject/30279170/

◎片 长 115分钟

◎导 演 林-曼努尔·米兰达 Lin-Manuel Miranda (id:1118251)

◎编 剧 史蒂文·莱文森 Steven Levenson (id:1414703)

乔纳森·拉森 Jonathan Larson (id:1005160)

◎演 员 安德鲁·加菲尔德 Andrew Garfield (id:1022620)

亚历山德拉·希普 Alexandra Shipp (id:1346503)

布莱德利·惠特福德 Bradley Whitford (id:1027158)

凡妮莎·哈金斯 Vanessa Hudgens (id:1025150)

朱迪斯·赖特 Judith Light (id:1004669)

约书亚·亨利 Joshua Henry (id:1388563)

乔安娜·阿德勒 Joanna Adler (id:1392525)

诺亚·罗宾斯 Noah Robbins (id:1364422)

罗宾·德·齐泽斯 Robin de Jesus (id:1185290)

乔丹·费舍 Jordan Fisher (id:1385534)

大卫·伊亚科诺 David Iacono (id:1430487)

◎标 签 安德鲁·加菲尔德 / 歌舞 / 传记 / 音乐 / 美国 / 2021 / 剧情 / LMM

◎简 介

安德鲁·加菲尔德确认主演林-曼努尔·米兰达长片导演首秀——Netflix新片《tick, tick…Boom!》,影片改编自著名音乐剧创作者乔纳森·拉森(《吉屋出租》)的同名自传性质剧作。1996年,拉森因马凡氏综合征引起的主动脉剥离,悲剧性地在《吉屋出租》首次预演的半天前去世,没能见证该剧此后的大热,已故的他也因此剧获得托尼奖和普利策奖。

米兰达曾参演了外百老汇版《Tick, Tick…Boom!》,原剧由拉森创作,也映射了他自己的人生。设定在1990年,主角为加菲饰演的Jon,一个年轻、雄心勃勃的音乐剧作曲家。他在纽约一边当侍者,一边写一部叫《Superbia》的音乐剧,希望能平步青云,开启事业。但他从女友Susan那里感受到了压力,对方已经厌倦了任男友的职业前途牵制自己的人生;同时,Jon的室友Michael也放弃了创作梦想,做了一份高收入的广...

  1. ##### MediaInfo ######

  2. General

  3. Unique ID : 323436675996578770134592204613355079895 (0xF353A35022252B7D4C99EA816AF888D7)

  4. Complete name : Tick.Tick…[email protected]

  5. Format : Matroska

  6. Format version : Version 4

  7. File size : 7.39 GiB

  8. Duration : 2 h 1 min

  9. Overall bit rate mode : Variable

  10. Overall bit rate : 8 698 kb/s

  11. Encoded date : UTC 2021-11-19 10:13:35

  12. Writing application : mkvmerge v62.0.0 ('Apollo') 64-bit

  13. Writing library : libebml v1.4.2 + libmatroska v1.6.4


  14. Video

  15. ID : 1

  16. Format : AVC

  17. Format/Info : Advanced Video Codec

  18. Format profile : [email protected]

  19. Format settings : CABAC / 4 Ref Frames

  20. Format settings, CABAC : Yes

  21. Format settings, Reference frames : 4 frames

  22. Codec ID : V_MPEG4/ISO/AVC

  23. Duration : 2 h 1 min

  24. Bit rate mode : Variable

  25. Bit rate : 7 160 kb/s

  26. Maximum bit rate : 20.0 Mb/s

  27. Width : 1 920 pixels

  28. Height : 1 080 pixels

  29. Display aspect ratio : 16:9

  30. Frame rate mode : Constant

  31. Frame rate : 24.000 FPS

  32. Color space : YUV

  33. Chroma subsampling : 4:2:0

  34. Bit depth : 8 bits

  35. Scan type : Progressive

  36. Bits/(Pixel*Frame) : 0.144

  37. Stream size : 6.08 GiB (82%)

  38. Writing library : x264 core 148 r2727 7d026e8

  39. Encoding settings : cabac=1 / ref=4 / deblock=1:0:0 / analyse=0x3:0x111 / me=umh / subme=10 / psy=1 / psy_rd=1.00:0.00 / mixed_ref=1 / me_range=120 / chroma_me=1 / trellis=2 / 8x8dct=1 / cqm=0 / deadzone=21,11 / fast_pskip=1 / chroma_qp_offset=-2 / threads=8 / lookahead_threads=2 / sliced_threads=0 / nr=0 / decimate=1 / interlaced=0 / NTMzNTQ= / bluray_compat=0 / stitchable=1 / constrained_intra=0 / bframes=16 / b_pyramid=2 / b_adapt=2 / b_bias=0 / direct=3 / weightb=1 / open_gop=0 / weightp=2 / keyint=240 / keyint_min=121 / scenecut=0 / intra_refresh=0 / rc_lookahead=240 / rc=crf / mbtree=1 / crf=16.0 / qcomp=0.50 / qpmin=6 / qpmax=51 / qpstep=4 / vbv_maxrate=20000 / vbv_bufsize=25000 / crf_max=0.0 / nal_hrd=vbr / filler=0 / NTMzNTQ=LmsMAP37EqsCpk / ip_ratio=1.40 / aq=1:0.80

  40. Default : Yes

  41. Forced : No


  42. Audio #1

  43. ID : 2

  44. Format : E-AC-3 JOC

  45. Format/Info : Enhanced AC-3 with Joint Object Coding

  46. Commercial name : Dolby Digital Plus with Dolby Atmos

  47. Codec ID : A_EAC3

  48. Duration : 2 h 1 min

  49. Bit rate mode : Constant

  50. Bit rate : 768 kb/s

  51. Channel(s) : 6 channels

  52. Channel layout : L R C LFE Ls Rs

  53. Sampling rate : 48.0 kHz

  54. Frame rate : 31.250 FPS (1536 SPF)

  55. Compression mode : Lossy

  56. Stream size : 668 MiB (9%)

  57. Language : English

  58. Service kind : Complete Main

  59. Default : Yes

  60. Forced : No

  61. Complexity index : 16

  62. Number of dynamic objects : 15

  63. Bed channel count : 1 channel

  64. Bed channel configuration : LFE


  65. Audio #2

  66. ID : 3

  67. Format : E-AC-3

  68. Format/Info : Enhanced AC-3

  69. Commercial name : Dolby Digital Plus

  70. Codec ID : A_EAC3

  71. Duration : 2 h 1 min

  72. Bit rate mode : Constant

  73. Bit rate : 640 kb/s

  74. Channel(s) : 6 channels

  75. Channel layout : L R C LFE Ls Rs

  76. Sampling rate : 48.0 kHz

  77. Frame rate : 31.250 FPS (1536 SPF)

  78. Compression mode : Lossy

  79. Stream size : 557 MiB (7%)

  80. Language : English

  81. Service kind : Complete Main

  82. Default : Yes

  83. Forced : No


  84. Audio #3

  85. ID : 4

  86. Format : E-AC-3

  87. Format/Info : Enhanced AC-3

  88. Commercial name : Dolby Digital Plus

  89. Codec ID : A_EAC3

  90. Duration : 2 h 1 min

  91. Bit rate mode : Constant

  92. Bit rate : 128 kb/s

  93. Channel(s) : 2 channels

  94. Channel layout : L R

  95. Sampling rate : 48.0 kHz

  96. Frame rate : 31.250 FPS (1536 SPF)

  97. Compression mode : Lossy

  98. Stream size : 111 MiB (1%)

  99. Language : English

  100. Service kind : Complete Main

  101. Default : Yes

  102. Forced : No


  103. Text #1

  104. ID : 5

  105. Format : UTF-8

  106. Codec ID : S_TEXT/UTF8

  107. Codec ID/Info : UTF-8 Plain Text

  108. Duration : 1 h 58 min

  109. Bit rate : 55 b/s

  110. Count of elements : 1604

  111. Stream size : 48.7 KiB (0%)

  112. Language : Chinese

  113. Default : Yes

  114. Forced : No


  115. Text #2

  116. ID : 6

  117. Format : UTF-8

  118. Codec ID : S_TEXT/UTF8

  119. Codec ID/Info : UTF-8 Plain Text

  120. Duration : 1 h 58 min

  121. Bit rate : 52 b/s

  122. Count of elements : 1610

  123. Stream size : 45.7 KiB (0%)

  124. Language : Chinese

  125. Default : Yes

  126. Forced : No


  127. Text #3

  128. ID : 7

  129. Format : UTF-8

  130. Codec ID : S_TEXT/UTF8

  131. Codec ID/Info : UTF-8 Plain Text

  132. Duration : 1 h 58 min

  133. Bit rate : 56 b/s

  134. Count of elements : 1725

  135. Stream size : 49.1 KiB (0%)

  136. Language : Japanese

  137. Default : Yes

  138. Forced : No


  139. Text #4

  140. ID : 8

  141. Format : UTF-8

  142. Codec ID : S_TEXT/UTF8

  143. Codec ID/Info : UTF-8 Plain Text

  144. Duration : 1 h 49 min

  145. Bit rate : 66 b/s

  146. Count of elements : 1652

  147. Stream size : 53.0 KiB (0%)

  148. Language : Korean

  149. Default : Yes

  150. Forced : No




复制代码



文件下载


除非特别注明,本文『倒数时刻[中文字幕].2021.1080p.NF.WEB-DL.x264.DDP5.1-Atmos-bt9527.cc 7.39GB』来源于互联网机器人自动抓取,非本站原创。 浮游电影网不对本文拥有版权,如有侵犯,请联系邮箱:fuyouu#yandex.com[#换成@]投诉。我们会在15个工作日内删除。 但烦请转载时请标明出处:“本文转载于『浮游电影网』,原文地址:https://www.fuyouu.com/18909.html

评论吧骚年!

发表你的见解   

昵称*

E-mail*(建议输入,以便收到博主回复的提示邮件)

验证码*

您可以使用eMule或eMule Mod(Windows)、aMule(Win、Linux、Mac)等软件下载eD2k链接。。
eMule收藏集(.emulecollection)文件是您选中的所有链接的列表文件。eMule可以直接下载它们。
按住SHIFT键选择可以选中多个选择框。
可用文件名和大小选择器来选择文件。
文件名选择器帮您根据文件名称或后缀来选择文件。不分大小写。
符号使用:
和:空格( )、+
不包含:-
或:|
转义:一对英文引号("");
匹配开头:^
匹配结尾:$
例如:
选中所有名称中包含有“eMule”或“0.49c”字眼,但不包含有“exe”字眼的:emule|0.49c -exe
选中所有名称的开头是“eMule”,结尾是“0.49c”的:^emule 0.49c$
选中所有名称中带有“eMule 0.49c”的(必须是“eMule 0.49c”,中间没有别的字符,不能是“eMule fake 0.49c”),需要转义:"emule 0.49c"
大小选择器帮您根据文件大小选择文件。