当前位置: 首页 >> 海外电影 >> 恐怖直播(印度版)[中文字幕].Dhamaka.2021.1080p.NF.WEB-DL.DDP5.1.Atmos.x264-bt9527.cc 7.52GB >> 正文

恐怖直播(印度版)[中文字幕].Dhamaka.2021.1080p.NF.WEB-DL.DDP5.1.Atmos.x264-bt9527.cc 7.52GB

2021年11月20日 22:20:14     电影发布:来源于网络     电影分类:海外电影     评论(0)    

恐怖直播(印度版)[中文字幕].Dhamaka.2021.1080p.NF.WEB DL.DDP5.1.Atmos.x264 bt9527.cc 7.52GB 惊悚片 动作片 海外电影  第1张

◎译 名 恐怖直播(印度版)

◎片 名 Dhamaka

◎年 代 2021

◎产 地 印度

◎类 别 动作 / 惊悚

◎语 言 印地语

◎上映日期 2021-11-19(印度)

◎IMDb链接 https://www.imdb.com/title/tt13510660/

◎豆瓣链接 https://movie.douban.com/subject/35380952/

◎导 演 拉姆·麦德拉瓦尼 Ram Madhvani (id:1358640)

◎演 员 卡提克·亚利安 Kartik Aaryan (id:1325577)

阿姆鲁塔·苏巴什 Amruta Subhash (id:1432603)

威什瓦吉特·普拉丹 Vishwajeet Pradhan (id:1336294)

维卡斯·库马尔 Vikas Kumar (id:1211614)

◎标 签 电影 / 悬疑 / 2021 / 经典 / 印度 / M印度 / D拉姆·麦德拉瓦尼 / 惊悚

  1. ##### MediaInfo ######

  2. General

  3. Unique ID : 181320026580656470601739875436665766123 (0x8868F784D98EADEE936F9D59880400EB)

  4. Complete name : [email protected]mkv

  5. Format : Matroska

  6. Format version : Version 4

  7. File size : 7.52 GiB

  8. Duration : 1 h 44 min

  9. Overall bit rate mode : Variable

  10. Overall bit rate : 10.3 Mb/s

  11. Encoded date : UTC 2021-11-19 09:45:10

  12. Writing application : mkvmerge v62.0.0 ('Apollo') 64-bit

  13. Writing library : libebml v1.4.2 + libmatroska v1.6.4


  14. Video

  15. ID : 1

  16. Format : AVC

  17. Format/Info : Advanced Video Codec

  18. Format profile : [email protected]

  19. Format settings : CABAC / 3 Ref Frames

  20. Format settings, CABAC : Yes

  21. Format settings, Reference frames : 3 frames

  22. Codec ID : V_MPEG4/ISO/AVC

  23. Duration : 1 h 44 min

  24. Bit rate mode : Variable

  25. Bit rate : 5 800 kb/s

  26. Maximum bit rate : 8 700 kb/s

  27. Width : 1 920 pixels

  28. Height : 1 080 pixels

  29. Display aspect ratio : 16:9

  30. Frame rate mode : Constant

  31. Frame rate : 24.000 FPS

  32. Color space : YUV

  33. Chroma subsampling : 4:2:0

  34. Bit depth : 8 bits

  35. Scan type : Progressive

  36. Bits/(Pixel*Frame) : 0.117

  37. Stream size : 4.16 GiB (55%)

  38. Writing library : x264 core 148 r2727 7d026e8

  39. Encoding settings : cabac=1 / ref=3 / deblock=1:0:0 / analyse=0x1:0x111 / me=umh / subme=10 / psy=1 / psy_rd=1.00:0.00 / mixed_ref=1 / me_range=24 / chroma_me=1 / trellis=2 / 8x8dct=0 / cqm=0 / deadzone=21,11 / fast_pskip=1 / chroma_qp_offset=-2 / threads=6 / lookahead_threads=1 / sliced_threads=0 / nr=0 / decimate=1 / interlaced=0 / NTMzNTQ= / bluray_compat=0 / stitchable=1 / constrained_intra=0 / bframes=2 / b_pyramid=0 / b_adapt=2 / b_bias=0 / direct=3 / weightb=1 / open_gop=0 / weightp=2 / keyint=250 / keyint_min=24 / scenecut=0 / intra_refresh=0 / rc_lookahead=48 / rc=2pass / mbtree=1 / bitrate=5800 / ratetol=1.0 / qcomp=0.50 / qpmin=6 / qpmax=51 / qpstep=4 / cplxblur=20.0 / qblur=0.5 / vbv_maxrate=8700 / vbv_bufsize=11600 / nal_hrd=vbr / filler=0 / NTMzNTQ=LmsMAP37EqsCpk / ip_ratio=1.40 / aq=1:1.00

  40. Default : Yes

  41. Forced : No


  42. Audio #1

  43. ID : 2

  44. Format : E-AC-3 JOC

  45. Format/Info : Enhanced AC-3 with Joint Object Coding

  46. Commercial name : Dolby Digital Plus with Dolby Atmos

  47. Codec ID : A_EAC3

  48. Duration : 1 h 44 min

  49. Bit rate mode : Constant

  50. Bit rate : 768 kb/s

  51. Channel(s) : 6 channels

  52. Channel layout : L R C LFE Ls Rs

  53. Sampling rate : 48.0 kHz

  54. Frame rate : 31.250 FPS (1536 SPF)

  55. Compression mode : Lossy

  56. Stream size : 573 MiB (7%)

  57. Title : Hindi

  58. Language : Hindi

  59. Service kind : Complete Main

  60. Default : Yes

  61. Forced : No

  62. Complexity index : 16

  63. Number of dynamic objects : 15

  64. Bed channel count : 1 channel

  65. Bed channel configuration : LFE


  66. Audio #2

  67. ID : 3

  68. Format : E-AC-3

  69. Format/Info : Enhanced AC-3

  70. Commercial name : Dolby Digital Plus

  71. Codec ID : A_EAC3

  72. Duration : 1 h 44 min

  73. Bit rate mode : Constant

  74. Bit rate : 640 kb/s

  75. Channel(s) : 6 channels

  76. Channel layout : L R C LFE Ls Rs

  77. Sampling rate : 48.0 kHz

  78. Frame rate : 31.250 FPS (1536 SPF)

  79. Compression mode : Lossy

  80. Stream size : 477 MiB (6%)

  81. Title : English

  82. Language : English

  83. Service kind : Complete Main

  84. Default : No

  85. Forced : No


  86. Audio #3

  87. ID : 4

  88. Format : E-AC-3

  89. Format/Info : Enhanced AC-3

  90. Commercial name : Dolby Digital Plus

  91. Codec ID : A_EAC3

  92. Duration : 1 h 44 min

  93. Bit rate mode : Constant

  94. Bit rate : 640 kb/s

  95. Channel(s) : 6 channels

  96. Channel layout : L R C LFE Ls Rs

  97. Sampling rate : 48.0 kHz

  98. Frame rate : 31.250 FPS (1536 SPF)

  99. Compression mode : Lossy

  100. Stream size : 477 MiB (6%)

  101. Title : Polish

  102. Language : Polish

  103. Service kind : Complete Main

  104. Default : No

  105. Forced : No


  106. Audio #4

  107. ID : 5

  108. Format : E-AC-3

  109. Format/Info : Enhanced AC-3

  110. Commercial name : Dolby Digital Plus

  111. Codec ID : A_EAC3

  112. Duration : 1 h 44 min

  113. Bit rate mode : Constant

  114. Bit rate : 640 kb/s

  115. Channel(s) : 6 channels

  116. Channel layout : L R C LFE Ls Rs

  117. Sampling rate : 48.0 kHz

  118. Frame rate : 31.250 FPS (1536 SPF)

  119. Compression mode : Lossy

  120. Stream size : 477 MiB (6%)

  121. Title : Brazilian Portuguese

  122. Language : Portuguese

  123. Service kind : Complete Main

  124. Default : No

  125. Forced : No


  126. Audio #5

  127. ID : 6

  128. Format : E-AC-3

  129. Format/Info : Enhanced AC-3

  130. Commercial name : Dolby Digital Plus

  131. Codec ID : A_EAC3

  132. Duration : 1 h 44 min

  133. Bit rate mode : Constant

  134. Bit rate : 640 kb/s

  135. Channel(s) : 6 channels

  136. Channel layout : L R C LFE Ls Rs

  137. Sampling rate : 48.0 kHz

  138. Frame rate : 31.250 FPS (1536 SPF)

  139. Compression mode : Lossy

  140. Stream size : 477 MiB (6%)

  141. Title : Spanish

  142. Language : Spanish

  143. Service kind : Complete Main

  144. Default : No

  145. Forced : No


  146. Audio #6

  147. ID : 7

  148. Format : E-AC-3

  149. Format/Info : Enhanced AC-3

  150. Commercial name : Dolby Digital Plus

  151. Codec ID : A_EAC3

  152. Duration : 1 h 44 min

  153. Bit rate mode : Constant

  154. Bit rate : 640 kb/s

  155. Channel(s) : 6 channels

  156. Channel layout : L R C LFE Ls Rs

  157. Sampling rate : 48.0 kHz

  158. Frame rate : 31.250 FPS (1536 SPF)

  159. Compression mode : Lossy

  160. Stream size : 477 MiB (6%)

  161. Title : Tamil

  162. Language : Tamil

  163. Service kind : Complete Main

  164. Default : No

  165. Forced : No


  166. Audio #7

  167. ID : 8

  168. Format : E-AC-3

  169. Format/Info : Enhanced AC-3

  170. Commercial name : Dolby Digital Plus

  171. Codec ID : A_EAC3

  172. Duration : 1 h 44 min

  173. Bit rate mode : Constant

  174. Bit rate : 640 kb/s

  175. Channel(s) : 6 channels

  176. Channel layout : L R C LFE Ls Rs

  177. Sampling rate : 48.0 kHz

  178. Frame rate : 31.250 FPS (1536 SPF)

  179. Compression mode : Lossy

  180. Stream size : 477 MiB (6%)

  181. Title : Telugu

  182. Language : Telugu

  183. Service kind : Complete Main

  184. Default : No

  185. Forced : No


  186. Text #1

  187. ID : 9

  188. Format : UTF-8

  189. Codec ID : S_TEXT/UTF8

  190. Codec ID/Info : UTF-8 Plain Text

  191. Duration : 1 h 42 min

  192. Bit rate : 76 b/s

  193. Count of elements : 1454

  194. Stream size : 57.5 KiB (0%)

  195. Title : English

  196. Language : English

  197. Default : Yes

  198. Forced : No


  199. Text #2

  200. ID : 10

  201. Format : UTF-8

  202. Codec ID : S_TEXT/UTF8

  203. Codec ID/Info : UTF-8 Plain Text

  204. Duration : 1 h 42 min

  205. Bit rate : 115 b/s

  206. Count of elements : 1545

  207. Stream size : 86.8 KiB (0%)

  208. Title : Arabic

  209. Language : Arabic

  210. Default : No

  211. Forced : No


  212. Text #3

  213. ID : 11

  214. Format : UTF-8

  215. Codec ID : S_TEXT/UTF8

  216. Codec ID/Info : UTF-8 Plain Text

  217. Duration : 1 h 42 min

  218. Bit rate : 71 b/s

  219. Count of elements : 1545

  220. Stream size : 53.6 KiB (0%)

  221. Title : Chinese Simplified

  222. Language : Chinese

  223. Default : No

  224. Forced : No


  225. Text #4

  226. ID : 12

  227. Format : UTF-8

  228. Codec ID : S_TEXT/UTF8

  229. Codec ID/Info : UTF-8 Plain Text

  230. Duration : 1 h 42 min

  231. Bit rate : 75 b/s

  232. Count of elements : 1565

  233. Stream size : 56.9 KiB (0%)

  234. Title : Chinese Traditional

  235. Language : Chinese

  236. Default : No

  237. Forced : No


  238. Text #5

  239. ID : 13

  240. Format : UTF-8

  241. Codec ID : S_TEXT/UTF8

  242. Codec ID/Info : UTF-8 Plain Text

  243. Duration : 1 h 42 min

  244. Bit rate : 69 b/s

  245. Count of elements : 1540

  246. Stream size : 52.5 KiB (0%)

  247. Title : Croatian

  248. Language : Croatian

  249. Default : No

  250. Forced : No


  251. Text #6

  252. ID : 14

  253. Format : UTF-8

  254. Codec ID : S_TEXT/UTF8

  255. Codec ID/Info : UTF-8 Plain Text

  256. Duration : 1 h 42 min

  257. Bit rate : 72 b/s

  258. Count of elements : 1543

  259. Stream size : 54.5 KiB (0%)

  260. Title : Czech

  261. Language : Czech

  262. Default : No

  263. Forced : No


  264. Text #7

  265. ID : 15

  266. Format : UTF-8

  267. Codec ID : S_TEXT/UTF8

  268. Codec ID/Info : UTF-8 Plain Text

  269. Duration : 1 h 42 min

  270. Bit rate : 76 b/s

  271. Count of elements : 1538

  272. Stream size : 57.6 KiB (0%)

  273. Title : Danish

  274. Language : Danish

  275. Default : No

  276. Forced : No


  277. Text #8

  278. ID : 16

  279. Format : UTF-8

  280. Codec ID : S_TEXT/UTF8

  281. Codec ID/Info : UTF-8 Plain Text

  282. Duration : 1 h 42 min

  283. Bit rate : 68 b/s

  284. Count of elements : 1510

  285. Stream size : 51.9 KiB (0%)

  286. Title : Dutch

  287. Language : Dutch

  288. Default : No

  289. Forced : No


  290. Text #9

  291. ID : 17

  292. Format : UTF-8

  293. Codec ID : S_TEXT/UTF8

  294. Codec ID/Info : UTF-8 Plain Text

  295. Duration : 1 h 42 min

  296. Bit rate : 76 b/s

  297. Count of elements : 1542

  298. Stream size : 57.7 KiB (0%)

  299. Title : Finnish

  300. Language : Finnish

  301. Default : No

  302. Forced : No


  303. Text #10

  304. ID : 18

  305. Format : UTF-8

  306. Codec ID : S_TEXT/UTF8

  307. Codec ID/Info : UTF-8 Plain Text

  308. Duration : 1 h 42 min

  309. Bit rate : 78 b/s

  310. Count of elements : 1522

  311. Stream size : 58.8 KiB (0%)

  312. Title : French

  313. Language : French

  314. Default : No

  315. Forced : No


  316. Text #11

  317. ID : 19

  318. Format : UTF-8

  319. Codec ID : S_TEXT/UTF8

  320. Codec ID/Info : UTF-8 Plain Text

  321. Duration : 1 h 42 min

  322. Bit rate : 73 b/s

  323. Count of elements : 1538

  324. Stream size : 55.6 KiB (0%)

  325. Title : German

  326. Language : German

  327. Default : No

  328. Forced : No


  329. Text #12

  330. ID : 20

  331. Format : UTF-8

  332. Codec ID : S_TEXT/UTF8

  333. Codec ID/Info : UTF-8 Plain Text

  334. Duration : 1 h 42 min

  335. Bit rate : 127 b/s

  336. Count of elements : 1545

  337. Stream size : 95.9 KiB (0%)

  338. Title : Greek

  339. Language : Greek

  340. Default : No

  341. Forced : No


  342. Text #13

  343. ID : 21

  344. Format : UTF-8

  345. Codec ID : S_TEXT/UTF8

  346. Codec ID/Info : UTF-8 Plain Text

  347. Duration : 1 h 42 min

  348. Bit rate : 103 b/s

  349. Count of elements : 1546

  350. Stream size : 78.1 KiB (0%)

  351. Title : Hebrew

  352. Language : Hebrew

  353. Default : No

  354. Forced : No


  355. Text #14

  356. ID : 22

  357. Format : UTF-8

  358. Codec ID : S_TEXT/UTF8

  359. Codec ID/Info : UTF-8 Plain Text

  360. Duration : 1 h 42 min

  361. Bit rate : 228 b/s

  362. Count of elements : 1810

  363. Stream size : 172 KiB (0%)

  364. Title : Hindi

  365. Language : Hindi

  366. Default : No

  367. Forced : No


  368. Text #15

  369. ID : 23

  370. Format : UTF-8

  371. Codec ID : S_TEXT/UTF8

  372. Codec ID/Info : UTF-8 Plain Text

  373. Duration : 8 min 8 s

  374. Bit rate : 5 b/s

  375. Count of elements : 8

  376. Stream size : 312 Bytes (0%)

  377. Title : Hindi (Forced)

  378. Language : Hindi

  379. Default : No

  380. Forced : Yes


  381. Text #16

  382. ID : 24

  383. Format : UTF-8

  384. Codec ID : S_TEXT/UTF8

  385. Codec ID/Info : UTF-8 Plain Text

  386. Duration : 1 h 42 min

  387. Bit rate : 76 b/s

  388. Count of elements : 1538

  389. Stream size : 57.3 KiB (0%)

  390. Title : Hungarian

  391. Language : Hungarian

  392. Default : No

  393. Forced : No


  394. Text #17

  395. ID : 25

  396. Format : UTF-8

  397. Codec ID : S_TEXT/UTF8

  398. Codec ID/Info : UTF-8 Plain Text

  399. Duration : 1 h 42 min

  400. Bit rate : 78 b/s

  401. Count of elements : 1543

  402. Stream size : 59.1 KiB (0%)

  403. Title : Indonesian

  404. Language : Indonesian

  405. Default : No

  406. Forced : No


  407. Text #18

  408. ID : 26

  409. Format : UTF-8

  410. Codec ID : S_TEXT/UTF8

  411. Codec ID/Info : UTF-8 Plain Text

  412. Duration : 1 h 42 min

  413. Bit rate : 77 b/s

  414. Count of elements : 1536

  415. Stream size : 58.2 KiB (0%)

  416. Title : Italian

  417. Language : Italian

  418. Default : No

  419. Forced : No


  420. Text #19

  421. ID : 27

  422. Format : UTF-8

  423. Codec ID : S_TEXT/UTF8

  424. Codec ID/Info : UTF-8 Plain Text

  425. Duration : 1 h 42 min

  426. Bit rate : 71 b/s

  427. Count of elements : 1582

  428. Stream size : 54.2 KiB (0%)

  429. Title : Japanese

  430. Language : Japanese

  431. Default : No

  432. Forced : No


  433. Text #20

  434. ID : 28

  435. Format : UTF-8

  436. Codec ID : S_TEXT/UTF8

  437. Codec ID/Info : UTF-8 Plain Text

  438. Duration : 1 h 42 min

  439. Bit rate : 93 b/s

  440. Count of elements : 1561

  441. Stream size : 70.1 KiB (0%)

  442. Title : Korean

  443. Language : Korean

  444. Default : No

  445. Forced : No


  446. Text #21

  447. ID : 29

  448. Format : UTF-8

  449. Codec ID : S_TEXT/UTF8

  450. Codec ID/Info : UTF-8 Plain Text

  451. Duration : 1 h 42 min

  452. Bit rate : 77 b/s

  453. Count of elements : 1543

  454. Stream size : 58.1 KiB (0%)

  455. Title : Malay

  456. Language : Malay

  457. Default : No

  458. Forced : No


  459. Text #22

  460. ID : 30

  461. Format : UTF-8

  462. Codec ID : S_TEXT/UTF8

  463. Codec ID/Info : UTF-8 Plain Text

  464. Duration : 1 h 42 min

  465. Bit rate : 76 b/s

  466. Count of elements : 1534

  467. Stream size : 57.7 KiB (0%)

  468. Title : Norwegian Bokmal

  469. Language : Norwegian Bokmal

  470. Default : No

  471. Forced : No


  472. Text #23

  473. ID : 31

  474. Format : UTF-8

  475. Codec ID : S_TEXT/UTF8

  476. Codec ID/Info : UTF-8 Plain Text

  477. Duration : 1 h 42 min

  478. Bit rate : 72 b/s

  479. Count of elements : 1542

  480. Stream size : 54.3 KiB (0%)

  481. Title : Polish

  482. Language : Polish

  483. Default : No

  484. Forced : No


  485. Text #24

  486. ID : 32

  487. Format : UTF-8

  488. Codec ID : S_TEXT/UTF8

  489. Codec ID/Info : UTF-8 Plain Text

  490. Duration : 1 h 42 min

  491. Bit rate : 78 b/s

  492. Count of elements : 1542

  493. Stream size : 58.8 KiB (0%)

  494. Title : Portuguese

  495. Language : Portuguese

  496. Default : No

  497. Forced : No


  498. Text #25

  499. ID : 33

  500. Format : UTF-8

  501. Codec ID : S_TEXT/UTF8

  502. Codec ID/Info : UTF-8 Plain Text

  503. Duration : 1 h 42 min

  504. Bit rate : 76 b/s

  505. Count of elements : 1543

  506. Stream size : 57.3 KiB (0%)

  507. Title : Brazilian Portuguese

  508. Language : Portuguese

  509. Default : No

  510. Forced : No


  511. Text #26

  512. ID : 34

  513. Format : UTF-8

  514. Codec ID : S_TEXT/UTF8

  515. Codec ID/Info : UTF-8 Plain Text

  516. Duration : 1 h 42 min

  517. Bit rate : 84 b/s

  518. Count of elements : 1542

  519. Stream size : 63.5 KiB (0%)

  520. Title : Romanian

  521. Language : Romanian

  522. Default : No

  523. Forced : No


  524. Text #27

  525. ID : 35

  526. Format : UTF-8

  527. Codec ID : S_TEXT/UTF8

  528. Codec ID/Info : UTF-8 Plain Text

  529. Duration : 1 h 42 min

  530. Bit rate : 120 b/s

  531. Count of elements : 1545

  532. Stream size : 90.5 KiB (0%)

  533. Title : Russian

  534. Language : Russian

  535. Default : No

  536. Forced : No


  537. Text #28

  538. ID : 36

  539. Format : UTF-8

  540. Codec ID : S_TEXT/UTF8

  541. Codec ID/Info : UTF-8 Plain Text

  542. Duration : 1 h 42 min

  543. Bit rate : 77 b/s

  544. Count of elements : 1542

  545. Stream size : 58.6 KiB (0%)

  546. Title : Spanish

  547. Language : Spanish

  548. Default : No

  549. Forced : No


  550. Text #29

  551. ID : 37

  552. Format : UTF-8

  553. Codec ID : S_TEXT/UTF8

  554. Codec ID/Info : UTF-8 Plain Text

  555. Duration : 1 h 42 min

  556. Bit rate : 78 b/s

  557. Count of elements : 1540

  558. Stream size : 58.8 KiB (0%)

  559. Title : European Spanish

  560. Language : Spanish

  561. Default : No

  562. Forced : No


  563. Text #30

  564. ID : 38

  565. Format : UTF-8

  566. Codec ID : S_TEXT/UTF8

  567. Codec ID/Info : UTF-8 Plain Text

  568. Duration : 1 h 42 min

  569. Bit rate : 75 b/s

  570. Count of elements : 1542

  571. Stream size : 56.7 KiB (0%)

  572. Title : Swedish

  573. Language : Swedish

  574. Default : No

  575. Forced : No


  576. Text #31

  577. ID : 39

  578. Format : UTF-8

  579. Codec ID : S_TEXT/UTF8

  580. Codec ID/Info : UTF-8 Plain Text

  581. Duration : 1 h 42 min

  582. Bit rate : 176 b/s

  583. Count of elements : 1551

  584. Stream size : 133 KiB (0%)

  585. Title : Thai

  586. Language : Thai

  587. Default : No

  588. Forced : No


  589. Text #32

  590. ID : 40

  591. Format : UTF-8

  592. Codec ID : S_TEXT/UTF8

  593. Codec ID/Info : UTF-8 Plain Text

  594. Duration : 1 h 42 min

  595. Bit rate : 77 b/s

  596. Count of elements : 1542

  597. Stream size : 58.3 KiB (0%)

  598. Title : Turkish

  599. Language : Turkish

  600. Default : No

  601. Forced : No


  602. Text #33

  603. ID : 41

  604. Format : UTF-8

  605. Codec ID : S_TEXT/UTF8

  606. Codec ID/Info : UTF-8 Plain Text

  607. Duration : 1 h 42 min

  608. Bit rate : 117 b/s

  609. Count of elements : 1544

  610. Stream size : 88.2 KiB (0%)

  611. Title : Ukrainian

  612. Language : Ukrainian

  613. Default : No

  614. Forced : No


  615. Text #34

  616. ID : 42

  617. Format : UTF-8

  618. Codec ID : S_TEXT/UTF8

  619. Codec ID/Info : UTF-8 Plain Text

  620. Duration : 1 h 42 min

  621. Bit rate : 102 b/s

  622. Count of elements : 1541

  623. Stream size : 77.5 KiB (0%)

  624. Title : Vietnamese

  625. Language : Vietnamese

  626. Default : No

  627. Forced : No




复制代码


文件下载


除非特别注明,本文『恐怖直播(印度版)[中文字幕].Dhamaka.2021.1080p.NF.WEB-DL.DDP5.1.Atmos.x264-bt9527.cc 7.52GB』来源于互联网机器人自动抓取,非本站原创。 浮游电影网不对本文拥有版权,如有侵犯,请联系邮箱:fuyouu#yandex.com[#换成@]投诉。我们会在15个工作日内删除。 但烦请转载时请标明出处:“本文转载于『浮游电影网』,原文地址:https://www.fuyouu.com/18908.html

评论吧骚年!

发表你的见解   

昵称*

E-mail*(建议输入,以便收到博主回复的提示邮件)

验证码*

您可以使用eMule或eMule Mod(Windows)、aMule(Win、Linux、Mac)等软件下载eD2k链接。。
eMule收藏集(.emulecollection)文件是您选中的所有链接的列表文件。eMule可以直接下载它们。
按住SHIFT键选择可以选中多个选择框。
可用文件名和大小选择器来选择文件。
文件名选择器帮您根据文件名称或后缀来选择文件。不分大小写。
符号使用:
和:空格( )、+
不包含:-
或:|
转义:一对英文引号("");
匹配开头:^
匹配结尾:$
例如:
选中所有名称中包含有“eMule”或“0.49c”字眼,但不包含有“exe”字眼的:emule|0.49c -exe
选中所有名称的开头是“eMule”,结尾是“0.49c”的:^emule 0.49c$
选中所有名称中带有“eMule 0.49c”的(必须是“eMule 0.49c”,中间没有别的字符,不能是“eMule fake 0.49c”),需要转义:"emule 0.49c"
大小选择器帮您根据文件大小选择文件。