当前位置: 首页 >> 欧美电影 >> 小岛[中文字幕].The.Isle.2019.1080p.WEB-DL.H264.AAC-bt9527.cc 1.51GB >> 正文

小岛[中文字幕].The.Isle.2019.1080p.WEB-DL.H264.AAC-bt9527.cc 1.51GB

2021年11月20日 22:18:50     电影发布:来源于网络     电影分类:欧美电影     评论(0)    

小岛[中文字幕].The.Isle.2019.1080p.WEB DL.H264.AAC bt9527.cc 1.51GB 历史 奇幻片 恐怖片 惊悚片 欧美电影  第1张

◎译 名 小岛

◎片 名 The Isle

◎年 代 2017

◎产 地 英国

◎类 别 惊悚 / 恐怖 / 历史 / 奇幻

◎语 言 英语

◎上映日期 2019-02-08(美国)

◎IMDb链接 https://www.imdb.com/title/tt5075662/

◎豆瓣评分 4.5/10 (100人评价)

◎豆瓣链接 https://movie.douban.com/subject/27166153/

◎片 长 96分钟

◎编 剧 托莉·巴特勒-哈特 Tori Butler-Hart (id:1408621)

◎演 员 康勒斯·希尔 Conleth Hill (id:1096920)

阿历克斯·哈赛尔 Alex Hassell (id:1355264)

艾利克斯·威尔顿·里根 Alix Wilton Regan (id:1259060)

艾玛·金 Emma King (id:1408619)

托莉·巴特勒-哈特 Tori Butler-Hart (id:1408621)

托莉·巴特勒-哈特 Tori Butler-Hart (id:1408621)

托莉·巴特勒-哈特 Tori Butler-Hart (id:1408621)

◎标 签 英国 / 灵异 / 恐怖 / 惊悚 / 奇幻 / 2017 / 美国电影 / 神话

◎简 介

On a remote island off the west coast of Scotland in 1846 a heavy storm hits, causing a ship to sink. Three survivors row through a thick early morning mist, lost and disorientated. The mist begins to clear and The Isle appears before them. They soon discover that it is almost abandoned except for four sole residents: an old harbour man, a farmer, his niece and a young mad woma...

  1. ##### MediaInfo ######

  2. General

  3. Unique ID : 236008363397817942953236452561962907582 (0xB18D8EB309249A1B25CF5448DF0BB7BE)

  4. Complete name : [email protected]

  5. Format : Matroska

  6. Format version : Version 4

  7. File size : 1.51 GiB

  8. Duration : 1 h 35 min

  9. Overall bit rate : 2 254 kb/s

  10. Encoded date : UTC 2021-11-18 12:02:53

  11. Writing application : mkvmerge v56.1.0 ('My Friend') 64-bit

  12. Writing library : libebml v1.4.2 + libmatroska v1.6.4


  13. Video

  14. ID : 1

  15. Format : AVC

  16. Format/Info : Advanced Video Codec

  17. Format profile : [email protected]

  18. Format settings : CABAC / 4 Ref Frames

  19. Format settings, CABAC : Yes

  20. Format settings, Reference frames : 4 frames

  21. Codec ID : V_MPEG4/ISO/AVC

  22. Duration : 1 h 35 min

  23. Bit rate : 2 124 kb/s

  24. Width : 1 920 pixels

  25. Height : 1 080 pixels

  26. Display aspect ratio : 16:9

  27. Frame rate mode : Constant

  28. Frame rate : 24.000 FPS

  29. Color space : YUV

  30. Chroma subsampling : 4:2:0

  31. Bit depth : 8 bits

  32. Scan type : Progressive

  33. Bits/(Pixel*Frame) : 0.043

  34. Stream size : 1.42 GiB (94%)

  35. Writing library : Zencoder Video Encoding System

  36. Default : Yes

  37. Forced : No

  38. Color range : Limited

  39. Color primaries : BT.709

  40. Transfer characteristics : BT.709

  41. Matrix coefficients : BT.709


  42. Audio

  43. ID : 2

  44. Format : AAC LC

  45. Format/Info : Advanced Audio Codec Low Complexity

  46. Codec ID : A_AAC-2

  47. Duration : 1 h 35 min

  48. Bit rate : 128 kb/s

  49. Channel(s) : 2 channels

  50. Channel layout : L R

  51. Sampling rate : 48.0 kHz

  52. Frame rate : 46.875 FPS (1024 SPF)

  53. Compression mode : Lossy

  54. Stream size : 87.5 MiB (6%)

  55. Title : English

  56. Language : English

  57. Default : Yes

  58. Forced : No


  59. Text #1

  60. ID : 3

  61. Format : ASS

  62. Codec ID : S_TEXT/ASS

  63. Codec ID/Info : Advanced Sub Station Alpha

  64. Duration : 1 h 27 min

  65. Bit rate : 133 b/s

  66. Count of elements : 850

  67. Compression mode : Lossless

  68. Stream size : 85.3 KiB (0%)

  69. Title : 简英双语

  70. Language : Chinese

  71. Default : Yes

  72. Forced : No


  73. Text #2

  74. ID : 4

  75. Format : UTF-8

  76. Codec ID : S_TEXT/UTF8

  77. Codec ID/Info : UTF-8 Plain Text

  78. Duration : 1 h 34 min

  79. Bit rate : 40 b/s

  80. Count of elements : 985

  81. Stream size : 28.3 KiB (0%)

  82. Title : English[CC]

  83. Language : English

  84. Default : No

  85. Forced : No




复制代码



文件下载


除非特别注明,本文『小岛[中文字幕].The.Isle.2019.1080p.WEB-DL.H264.AAC-bt9527.cc 1.51GB』来源于互联网机器人自动抓取,非本站原创。 浮游电影网不对本文拥有版权,如有侵犯,请联系邮箱:fuyouu#yandex.com[#换成@]投诉。我们会在15个工作日内删除。 但烦请转载时请标明出处:“本文转载于『浮游电影网』,原文地址:https://www.fuyouu.com/18907.html

评论吧骚年!

发表你的见解   

昵称*

E-mail*(建议输入,以便收到博主回复的提示邮件)

验证码*

您可以使用eMule或eMule Mod(Windows)、aMule(Win、Linux、Mac)等软件下载eD2k链接。。
eMule收藏集(.emulecollection)文件是您选中的所有链接的列表文件。eMule可以直接下载它们。
按住SHIFT键选择可以选中多个选择框。
可用文件名和大小选择器来选择文件。
文件名选择器帮您根据文件名称或后缀来选择文件。不分大小写。
符号使用:
和:空格( )、+
不包含:-
或:|
转义:一对英文引号("");
匹配开头:^
匹配结尾:$
例如:
选中所有名称中包含有“eMule”或“0.49c”字眼,但不包含有“exe”字眼的:emule|0.49c -exe
选中所有名称的开头是“eMule”,结尾是“0.49c”的:^emule 0.49c$
选中所有名称中带有“eMule 0.49c”的(必须是“eMule 0.49c”,中间没有别的字符,不能是“eMule fake 0.49c”),需要转义:"emule 0.49c"
大小选择器帮您根据文件大小选择文件。