当前位置: 首页 >> 国产电影 >> 寻仇阴阳界[国语配音/中文字幕].Looking.For.Enemy.in.Ying.and.Yang.1994.WEB-DL.1080p.H265.AAC-bt9527 1.98GB >> 正文

寻仇阴阳界[国语配音/中文字幕].Looking.For.Enemy.in.Ying.and.Yang.1994.WEB-DL.1080p.H265.AAC-bt9527 1.98GB

2021年11月20日 22:17:27     电影发布:来源于网络     电影分类:国产电影     评论(0)    

寻仇阴阳界[国语配音/中文字幕].Looking.For.Enemy.in.Ying.and.Yang.1994.WEB DL.1080p.H265.AAC bt9527 1.98GB 悬疑片 国产电影  第1张

◎译 名 寻仇阴阳界 / Looking For Enemy in Ying and Yang

◎年 代 1994

◎产 地 中国大陆

◎类 别 悬疑

◎语 言 汉语普通话

◎上映日期 1994-12-01(中国大陆)

◎IMDb链接 https://www.imdb.com/title/tt0341113/

◎豆瓣评分 6.1/10 (173人评价)

◎豆瓣链接 https://movie.douban.com/subject/1306968/

◎片 长 86分钟

◎导 演 李育才 Yucai Li (id:1371054)

吕枫 Feng Lü (id:1381167)

◎演 员 廖学秋 Xueqiu Liao (id:1318037)

孙飞虎 Feihu Sun (id:1298647)

孙雪梅 Xuemei Sun (id:1374825)

管越 Yue Guan (id:1370959)

戴辉瑶 Huiyao Dai (id:1404999)

赵春明 Chunmin Zhao (id:1381170)

郭景华 Jinghua Guo (id:1381169)

陶龙 Long Tao (id:1352773)

燕平孝 Pingxiao Yan (id:1415947)

张丕民 Pimin Zhang (id:1313551)

◎标 签 悬疑 / 中国电影 / 恐怖 / 中国 / 1994 / 电影 / 李育才 / 电影频道

◎简 介

故事发生在清末民初的时候,在一处偏远山区,有一个名叫“阴阳界”的荒凉小村庄。低眉顺眼的美丽女孩杏儿(孙雪梅 饰)是村中一朵令人称其向往的小花,她与养父(郭景华 饰)生活在破落颓败的大院内,但和穷小子蚱蜢(管越 饰)相互爱恋,却不知残酷的命运正向她扑来。某天杏儿神秘失踪,村民传言女孩被人杀害。似乎为了印证村民的说词,许多与鬼有关的怪事也接二连三发生,弄得村里人心惶惶,捕风捉影。 就在此刻,善于问卜吉凶的李八仙(孙飞虎 饰)来到村里,他以捉鬼之名调查杏儿失踪之谜,谁知却牵扯出十数年前一桩不为人知的离奇往事……

  1. ##### MediaInfo ######

  2. General

  3. Complete name : Looking For Enemy in Ying and Yang 1994 WEB-DL 1080p H265 [email protected]

  4. Format : MPEG-4

  5. Format profile : Base Media

  6. Codec ID : isom (isom)

  7. File size : 1.98 GiB

  8. Duration : 1 h 25 min

  9. Overall bit rate mode : Variable

  10. Overall bit rate : 3 302 kb/s

  11. Encoded date : UTC 2021-11-19 02:01:55

  12. Tagged date : UTC 2021-11-19 02:01:55


  13. Video

  14. ID : 1

  15. Format : HEVC

  16. Format/Info : High Efficiency Video Coding

  17. Format profile : Main [email protected]@Main

  18. Codec ID : hev1

  19. Codec ID/Info : High Efficiency Video Coding

  20. Duration : 1 h 25 min

  21. Source duration : 1 h 25 min

  22. Bit rate : 3 108 kb/s

  23. Maximum bit rate : 8 061 kb/s

  24. Width : 1 920 pixels

  25. Height : 1 080 pixels

  26. Display aspect ratio : 16:9

  27. Frame rate mode : Constant

  28. Frame rate : 25.000 FPS

  29. Color space : YUV

  30. Chroma subsampling : 4:2:0

  31. Bit depth : 10 bits

  32. Bits/(Pixel*Frame) : 0.060

  33. Stream size : 1.86 GiB (94%)

  34. Source stream size : 1.86 GiB (94%)

  35. Writing library : x265 2.3+33-0b7d54dbb71a:[Linux][GCC 5.4.1][64 bit] 10bit

  36. Encoding settings : cpuid=533541173503 / frame-threads=6 / wpp / no-pmode / no-pme / no-psnr / no-ssim / log-level=2 / input-csp=1 / input-res=1920x1080 / interlace=0 / total-frames=0 / level-idc=0 / high-tier=1 / uhd-bd=0 / ref=4 / no-allow-non-conformance / repeat-headers / annexb / aud / hrd / info / hash=0 / no-temporal-layers / no-open-gop / min-keyint=50 / keyint=50 / bframes=4 / b-adapt=2 / b-pyramid / bframe-bias=0 / rc-lookahead=25 / lookahead-slices=4 / scenecut=0 / no-intra-refresh / ctu=64 / min-cu-size=8 / rect / no-amp / max-tu-size=32 / tu-inter-depth=1 / tu-intra-depth=1 / limit-tu=0 / rdoq-level=2 / dynamic-rd=0.00 / no-ssim-rd / signhide / no-tskip / nr-intra=0 / nr-inter=0 / no-constrained-intra / strong-intra-smoothing / max-merge=3 / limit-refs=3 / limit-modes / me=3 / subme=3 / merange=57 / temporal-mvp / weightp / no-weightb / no-analyze-src-pics / deblock=0:0 / sao / no-sao-non-deblock / rd=4 / no-early-skip / rskip / no-fast-intra / no-tskip-fast / no-cu-lossless / no-b-intra / rdpenalty=0 / psy-rd=2.00 / psy-rdoq=1.00 / no-rd-refine / analysis-mode=0 / no-lossless / cbqpoffs=0 / crqpoffs=0 / rc=abr / bitrate=3000 / qcomp=0.60 / qpstep=4 / stats-write=0 / stats-read=0 / vbv-maxrate=6000 / vbv-bufsize=6000 / vbv-init=0.9 / ipratio=1.40 / pbratio=1.30 / aq-mode=1 / aq-strength=1.00 / cutree / zone-count=0 / no-strict-cbr / qg-size=32 / no-rc-grain / qpmax=69 / qpmin=0 / sar=1 / overscan=0 / videoformat=5 / range=0 / colorprim=1 / transfer=1 / colormatrix=1 / chromaloc=0 / display-window=0 / max-cll=0,0 / min-luma=0 / max-luma=1023 / log2-max-poc-lsb=8 / vui-timing-info / vui-hrd-info / slices=1 / opt-qp-pps / opt-ref-list-length-pps / no-multi-pass-opt-rps / scenecut-bias=0.05 / no-opt-cu-delta-qp / no-aq-motion / no-hdr / no-hdr-opt / refine-level=5 / no-limit-sao

  37. Tagged date : UTC 2021-11-19 02:02:06

  38. Color range : Limited

  39. Color primaries : BT.709

  40. Transfer characteristics : BT.709

  41. Matrix coefficients : BT.709

  42. Codec configuration box : hvcC


  43. Audio

  44. ID : 2

  45. Format : AAC LC

  46. Format/Info : Advanced Audio Codec Low Complexity

  47. Codec ID : mp4a-40-2

  48. Duration : 1 h 25 min

  49. Bit rate mode : Variable

  50. Bit rate : 192 kb/s

  51. Maximum bit rate : 208 kb/s

  52. Channel(s) : 2 channels

  53. Channel layout : L R

  54. Sampling rate : 48.0 kHz

  55. Frame rate : 46.875 FPS (1024 SPF)

  56. Compression mode : Lossy

  57. Stream size : 117 MiB (6%)

  58. Encoded date : UTC 2021-11-19 02:02:02

  59. Tagged date : UTC 2021-11-19 02:02:06




复制代码



文件下载


除非特别注明,本文『寻仇阴阳界[国语配音/中文字幕].Looking.For.Enemy.in.Ying.and.Yang.1994.WEB-DL.1080p.H265.AAC-bt9527 1.98GB』来源于互联网机器人自动抓取,非本站原创。 浮游电影网不对本文拥有版权,如有侵犯,请联系邮箱:fuyouu#yandex.com[#换成@]投诉。我们会在15个工作日内删除。 但烦请转载时请标明出处:“本文转载于『浮游电影网』,原文地址:https://www.fuyouu.com/18906.html

评论吧骚年!

发表你的见解   

昵称*

E-mail*(建议输入,以便收到博主回复的提示邮件)

验证码*

您可以使用eMule或eMule Mod(Windows)、aMule(Win、Linux、Mac)等软件下载eD2k链接。。
eMule收藏集(.emulecollection)文件是您选中的所有链接的列表文件。eMule可以直接下载它们。
按住SHIFT键选择可以选中多个选择框。
可用文件名和大小选择器来选择文件。
文件名选择器帮您根据文件名称或后缀来选择文件。不分大小写。
符号使用:
和:空格( )、+
不包含:-
或:|
转义:一对英文引号("");
匹配开头:^
匹配结尾:$
例如:
选中所有名称中包含有“eMule”或“0.49c”字眼,但不包含有“exe”字眼的:emule|0.49c -exe
选中所有名称的开头是“eMule”,结尾是“0.49c”的:^emule 0.49c$
选中所有名称中带有“eMule 0.49c”的(必须是“eMule 0.49c”,中间没有别的字符,不能是“eMule fake 0.49c”),需要转义:"emule 0.49c"
大小选择器帮您根据文件大小选择文件。