当前位置: 首页 >> 国产电影 >> 鬼妹[国语配音/中文字幕].Ghost.Sisters.1985.WEB-DL.4K.H265.DDP.2.0.&.AAC-bt9527.cc 3.75GB >> 正文

鬼妹[国语配音/中文字幕].Ghost.Sisters.1985.WEB-DL.4K.H265.DDP.2.0.&.AAC-bt9527.cc 3.75GB

2021年11月20日 22:10:31     电影发布:来源于网络     电影分类:国产电影     评论(0)    

鬼妹[国语配音/中文字幕].Ghost.Sisters.1985.WEB DL.4K.H265.DDP.2.0.&.AAC bt9527.cc 3.75GB 古装片 奇幻片 爱情片 剧情片 国产电影  第1张

◎译 名 鬼妹

◎年 代 1985

◎产 地 中国大陆

◎类 别 剧情 / 爱情 / 奇幻 / 古装

◎语 言 汉语普通话

◎上映日期 1985(中国大陆)

◎IMDb链接 https://www.imdb.com/title//

◎豆瓣评分 6.8/10 (212人评价)

◎豆瓣链接 https://movie.douban.com/subject/2080453/

◎片 长 91分钟

◎导 演 孙元勋 Yuanxun Sun (id:1353396)

◎演 员 张瑞珈 Ruijia Zhang (id:1322177)

王苓华 Linghua Wang (id:1325502)

宋国毅 Guoyi Song (id:1413394)

韩贵臣 Guichen Han (id:1424890)

薛效强 Xiaoqiang Xue (id:1415951)

钱运选 Yunxuan Qian (id:1367288)

燕平孝 Pingxiao Yan (id:1415947)

李恩德 Ende Li (id:1290011)

孙超德 Chaode Sun (id:1437099)

蒲松龄 Songling Pu (id:1275998)

◎标 签 聊斋 / 中国电影 / 大陆 / 古装 / 国产电影 / 爱情 / 中国 / 孙元勋

◎简 介

正直而胆大的书生陶生(郝劫 饰)从好友处听说了闹鬼凶宅的传说,他无所畏惧,主动提出借好友这座鬼宅读书的请求。因为闹鬼,原本宽敞的庭院变得荒芜不堪,萧索凄冷。陶生秉持着一股正气入住进来,在这个僻静所在倒也能够专心攻读。谁知到了夜晚,便有两个美若天仙的女子悄然而至。几次三番后,陶生与名叫秋蓉(张瑾 饰)和小谢(王苓华 饰)的两个女鬼熟稔。秋蓉和小谢敬重陶生的正直,丝毫没有加害之意,反而用心帮其打理衣食起居的一切。而在这一过程中,陶生也知晓了两个女鬼凄惨悲凉的身世。

义愤填膺的陶生决定为她们讨回公道,谁知自己却不由得卷入奸人罗织的冤狱之中……

  1. ##### MediaInfo ######

  2. General

  3. Unique ID : 114721736409534728524976381859887015568 (0x564E9A4D5221EA1E00EF874B19636690)

  4. Complete name : Ghost Sisters 1985 WEB-DL 4K H265 DDP 2.0 & [email protected]

  5. Format : Matroska

  6. Format version : Version 4

  7. File size : 3.75 GiB

  8. Duration : 1 h 33 min

  9. Overall bit rate : 5 713 kb/s

  10. Encoded date : UTC 2021-11-18 23:30:11

  11. Writing application : mkvmerge v62.0.0 ('Apollo') 64-bit

  12. Writing library : libebml v1.4.2 + libmatroska v1.6.4


  13. Video

  14. ID : 1

  15. Format : HEVC

  16. Format/Info : High Efficiency Video Coding

  17. Format profile : [email protected]@Main

  18. Codec ID : V_MPEGH/ISO/HEVC

  19. Duration : 1 h 33 min

  20. Bit rate : 5 487 kb/s

  21. Width : 3 840 pixels

  22. Height : 2 160 pixels

  23. Display aspect ratio : 16:9

  24. Frame rate mode : Constant

  25. Frame rate : 24.000 FPS

  26. Color space : YUV

  27. Chroma subsampling : 4:2:0

  28. Bit depth : 8 bits

  29. Bits/(Pixel*Frame) : 0.028

  30. Stream size : 3.60 GiB (96%)

  31. Default : Yes

  32. Forced : No


  33. Audio #1

  34. ID : 2

  35. Format : AAC LC

  36. Format/Info : Advanced Audio Codec Low Complexity

  37. Codec ID : A_AAC-2

  38. Duration : 1 h 33 min

  39. Bit rate : 128 kb/s

  40. Channel(s) : 2 channels

  41. Channel layout : L R

  42. Sampling rate : 48.0 kHz

  43. Frame rate : 46.875 FPS (1024 SPF)

  44. Compression mode : Lossy

  45. Stream size : 85.9 MiB (2%)

  46. Language : Chinese

  47. Default : Yes

  48. Forced : No


  49. Audio #2

  50. ID : 3

  51. Format : E-AC-3

  52. Format/Info : Enhanced AC-3

  53. Commercial name : Dolby Digital Plus

  54. Codec ID : A_EAC3

  55. Duration : 1 h 33 min

  56. Bit rate mode : Constant

  57. Bit rate : 96.0 kb/s

  58. Channel(s) : 2 channels

  59. Channel layout : L R

  60. Sampling rate : 48.0 kHz

  61. Frame rate : 31.250 FPS (1536 SPF)

  62. Compression mode : Lossy

  63. Stream size : 64.5 MiB (2%)

  64. Language : Chinese

  65. Service kind : Complete Main

  66. Default : No

  67. Forced : No




复制代码



文件下载


除非特别注明,本文『鬼妹[国语配音/中文字幕].Ghost.Sisters.1985.WEB-DL.4K.H265.DDP.2.0.&.AAC-bt9527.cc 3.75GB』来源于互联网机器人自动抓取,非本站原创。 浮游电影网不对本文拥有版权,如有侵犯,请联系邮箱:fuyouu#yandex.com[#换成@]投诉。我们会在15个工作日内删除。 但烦请转载时请标明出处:“本文转载于『浮游电影网』,原文地址:https://www.fuyouu.com/18905.html

评论吧骚年!

发表你的见解   

昵称*

E-mail*(建议输入,以便收到博主回复的提示邮件)

验证码*

您可以使用eMule或eMule Mod(Windows)、aMule(Win、Linux、Mac)等软件下载eD2k链接。。
eMule收藏集(.emulecollection)文件是您选中的所有链接的列表文件。eMule可以直接下载它们。
按住SHIFT键选择可以选中多个选择框。
可用文件名和大小选择器来选择文件。
文件名选择器帮您根据文件名称或后缀来选择文件。不分大小写。
符号使用:
和:空格( )、+
不包含:-
或:|
转义:一对英文引号("");
匹配开头:^
匹配结尾:$
例如:
选中所有名称中包含有“eMule”或“0.49c”字眼,但不包含有“exe”字眼的:emule|0.49c -exe
选中所有名称的开头是“eMule”,结尾是“0.49c”的:^emule 0.49c$
选中所有名称中带有“eMule 0.49c”的(必须是“eMule 0.49c”,中间没有别的字符,不能是“eMule fake 0.49c”),需要转义:"emule 0.49c"
大小选择器帮您根据文件大小选择文件。