当前位置: 首页 >> 动画电影 >> 蝙蝠侠:元年[中文字幕].Batman.Year.One.2011.2160p.HDR.UHD.BluRay.DTS-HD.MA.5.1.x265-10bit-bt9527 8.09GB >> 正文

蝙蝠侠:元年[中文字幕].Batman.Year.One.2011.2160p.HDR.UHD.BluRay.DTS-HD.MA.5.1.x265-10bit-bt9527 8.09GB

2021年11月20日 21:55:05     电影发布:来源于网络     电影分类:动画电影     评论(0)    

image.png

◎译 名 蝙蝠侠:元年 / 蝙蝠侠:第一年

◎片 名 Batman: Year One

◎年 代 2011

◎产 地 美国

◎类 别 剧情 / 动作 / 动画 / 犯罪

◎语 言 英语

◎上映日期 2011-10-18(美国)

◎IMDb链接 https://www.imdb.com/title/tt1672723/

◎豆瓣评分 8.3/10 (8090人评价)

◎豆瓣链接 https://movie.douban.com/subject/5150481/

◎片 长 64分钟

◎导 演 刘山姆 Sam Liu (id:1332072)

劳伦·蒙哥马利 Lauren Montgomery (id:1330236)

◎编 剧 鲍勃·凯恩 Bob Kane (id:1041392)

泰布·墨菲 Tab Murphy (id:1292765)

弗兰克·米勒 Frank Miller (id:1004675)

◎演 员 布莱恩·科兰斯顿 Bryan Cranston (id:1031807)

艾丽莎·杜什库 Eliza Dushku (id:1013767)

本·麦肯锡 Ben McKenzie (id:1184657)

凯缇·萨克霍夫 Katee Sackhoff (id:1000063)

阿历克斯·罗克 Alex Rocco (id:1032109)

莉莉娜·穆米 Liliana Mumy (id:1173357)

布鲁斯·提姆 Bruce W. Timm (id:1005116)

◎标 签 动画 / DC / 蝙蝠侠 / 美国 / 漫画改编 / 2011 / Batman / 动作

◎简 介

《蝙蝠侠:第一年》原著漫画于1988年首次发表,作者弗兰克·米勒开创性地再造了蝙蝠侠的起源故事——他是什么人,他如何成为蝙蝠侠。

本作从布鲁斯·韦恩第一次回到高谭市为开端,为这个传奇人物的诞生打下了新的基础,成为正史中最重要的一页。作为一切故事的开端,本集讲述了各个人物的来历。哈维·邓特不是令人瞩目的青年才俊,而是屡败屡战的检察官;猫女赛琳娜·凯勒不是上流社会的优雅贵妇,只是一名出身街头的穷妓女。在他们生存的哥谭市里,官员们同黑帮勾结,警察是罪犯的保护伞。新调来的警官詹姆斯·戈登想在一个堕落的城市做一名好警察;刚刚回到故乡准备扫尽罪孽的布鲁斯·韦恩则在流血中懂得,惟有让人恐惧才能叫人尊敬。在深夜中,他悄然出现,又随着宽大黑披风带起的一缕微风而没入黑暗。有人说他是野蛮的暴徒,有人说他是嗜血的疯子,也有人认为他只是一个都市传说。一切传说都有它的起源……

  1. ##### MediaInfo ######

  2. General

  3. Unique ID : 115243877125901305769585533237447692585 (0x56B329D3B104E5857E27DE08CB451129)

  4. Complete name : Batman.Ye[email protected]BBQDDQ.COM.mkv

  5. Format : Matroska

  6. Format version : Version 4

  7. File size : 8.09 GiB

  8. Duration : 1 h 4 min

  9. Overall bit rate mode : Variable

  10. Overall bit rate : 18.1 Mb/s

  11. Movie name : Batman Year One 2011 2160p HDR UHD BluRay DTS-HD MA 5.1 [email protected]

  12. Encoded date : UTC 2021-11-18 13:42:09

  13. Writing application : mkvmerge v38.0.0 ('The Silent Type') 64-bit

  14. Writing library : libebml v1.3.9 + libmatroska v1.5.2


  15. Video

  16. ID : 1

  17. Format : HEVC

  18. Format/Info : High Efficiency Video Coding

  19. Format profile : Main [email protected]@High

  20. HDR format : SMPTE ST 2086, HDR10 compatible

  21. Codec ID : V_MPEGH/ISO/HEVC

  22. Duration : 1 h 4 min

  23. Bit rate : 14.3 Mb/s

  24. Width : 3 840 pixels

  25. Height : 2 160 pixels

  26. Display aspect ratio : 16:9

  27. Frame rate mode : Constant

  28. Frame rate : 23.976 (24000/1001/53354) FPS

  29. Color space : YUV

  30. Chroma subsampling : 4:2:0

  31. Bit depth : 10 bits

  32. Bits/(Pixel*Frame) : 0.072

  33. Stream size : 6.39 GiB (79%)

  34. Title : @HDSky

  35. Writing library : x265 - H.265/HEVC codec

  36. Default : Yes

  37. Forced : No

  38. Color range : Limited

  39. Color primaries : BT.2020

  40. Transfer characteristics : PQ

  41. Matrix coefficients : BT.2020 non-constant

  42. Mastering display color primaries : BT.2020

  43. Mastering display luminance : min: 0.0020 cd/m2, max: 1000 cd/m2

  44. Maximum Content Light Level : 739 cd/m2

  45. Maximum Frame-Average Light Level : 331 cd/m2


  46. Audio

  47. ID : 2

  48. Format : DTS XLL

  49. Format/Info : Digital Theater Systems

  50. Commercial name : DTS-HD Master Audio

  51. Codec ID : A_DTS

  52. Duration : 1 h 4 min

  53. Bit rate mode : Variable

  54. Bit rate : 3 763 kb/s

  55. Channel(s) : 6 channels

  56. Channel layout : C L R Ls Rs LFE

  57. Sampling rate : 48.0 kHz

  58. Frame rate : 93.750 FPS (512 SPF)

  59. Bit depth : 24 bits

  60. Compression mode : Lossless

  61. Stream size : 1.68 GiB (21%)

  62. Title : English

  63. Language : English

  64. Default : Yes

  65. Forced : No


  66. Text #1

  67. ID : 3

  68. Format : PGS

  69. Muxing mode : zlib

  70. Codec ID : S_HDMV/PGS

  71. Codec ID/Info : Picture based subtitle format used on BDs/HD-DVDs

  72. Duration : 59 min 56 s

  73. Bit rate : 30.2 kb/s

  74. Count of elements : 1420

  75. Stream size : 13.0 MiB (0%)

  76. Title : ENG

  77. Language : English

  78. Default : Yes

  79. Forced : No


  80. Text #2

  81. ID : 4

  82. Format : PGS

  83. Muxing mode : zlib

  84. Codec ID : S_HDMV/PGS

  85. Codec ID/Info : Picture based subtitle format used on BDs/HD-DVDs

  86. Duration : 59 min 56 s

  87. Bit rate : 19.9 kb/s

  88. Count of elements : 1291

  89. Stream size : 8.53 MiB (0%)

  90. Title : CHS

  91. Language : Chinese

  92. Default : No

  93. Forced : No


  94. Text #3

  95. ID : 5

  96. Format : PGS

  97. Muxing mode : zlib

  98. Codec ID : S_HDMV/PGS

  99. Codec ID/Info : Picture based subtitle format used on BDs/HD-DVDs

  100. Duration : 59 min 56 s

  101. Bit rate : 20.4 kb/s

  102. Count of elements : 1291

  103. Stream size : 8.76 MiB (0%)

  104. Title : CHT

  105. Language : Chinese

  106. Default : No

  107. Forced : No


  108. Menu

  109. 00:00:00.000 : en:Chapter 01

  110. 00:01:49.151 : en:Chapter 02

  111. 00:09:39.329 : en:Chapter 03

  112. 00:18:55.009 : en:Chapter 04

  113. 00:27:07.835 : en:Chapter 05

  114. 00:39:42.463 : en:Chapter 06

  115. 00:49:14.326 : en:Chapter 07

  116. 00:59:44.039 : en:Chapter 08

  117. 01:00:37.050 : en:Chapter 09




复制代码


文件下载


除非特别注明,本文『蝙蝠侠:元年[中文字幕].Batman.Year.One.2011.2160p.HDR.UHD.BluRay.DTS-HD.MA.5.1.x265-10bit-bt9527 8.09GB』来源于互联网机器人自动抓取,非本站原创。 浮游电影网不对本文拥有版权,如有侵犯,请联系邮箱:fuyouu#yandex.com[#换成@]投诉。我们会在15个工作日内删除。 但烦请转载时请标明出处:“本文转载于『浮游电影网』,原文地址:https://www.fuyouu.com/18902.html

评论吧骚年!

发表你的见解   

昵称*

E-mail*(建议输入,以便收到博主回复的提示邮件)

验证码*

您可以使用eMule或eMule Mod(Windows)、aMule(Win、Linux、Mac)等软件下载eD2k链接。。
eMule收藏集(.emulecollection)文件是您选中的所有链接的列表文件。eMule可以直接下载它们。
按住SHIFT键选择可以选中多个选择框。
可用文件名和大小选择器来选择文件。
文件名选择器帮您根据文件名称或后缀来选择文件。不分大小写。
符号使用:
和:空格( )、+
不包含:-
或:|
转义:一对英文引号("");
匹配开头:^
匹配结尾:$
例如:
选中所有名称中包含有“eMule”或“0.49c”字眼,但不包含有“exe”字眼的:emule|0.49c -exe
选中所有名称的开头是“eMule”,结尾是“0.49c”的:^emule 0.49c$
选中所有名称中带有“eMule 0.49c”的(必须是“eMule 0.49c”,中间没有别的字符,不能是“eMule fake 0.49c”),需要转义:"emule 0.49c"
大小选择器帮您根据文件大小选择文件。