当前位置: 首页 >> 国产电影 >> 任性的硬币[中文字幕].The.Coin.2018.2160p.WEB-DL.H265.DD2.0-bt9527.cc 18.15GB >> 正文

任性的硬币[中文字幕].The.Coin.2018.2160p.WEB-DL.H265.DD2.0-bt9527.cc 18.15GB

2021年11月20日 21:53:44     电影发布:来源于网络     电影分类:国产电影     评论(0)    

image.png

◎译 名 任性的硬币 / The Coin

◎年 代 2018

◎产 地 中国大陆

◎类 别 喜剧

◎语 言 汉语普通话

◎上映日期 2018-05-07(中国大陆)

◎IMDb链接 https://www.imdb.com/title//

◎豆瓣链接 https://movie.douban.com/subject/30183444/

◎片 长 87分钟

◎导 演 陈之月 Zhiyue Chen (id:1323617)

◎演 员 黄一飞 Yut Fei Wong (id:1301215)

温哲轩 ZeXuan Weng (id:1348541)

王双宝 Shuangbao Wang (id:1275977)

何文辉 Wenhui He (id:1322073)

李仟拉 Qianla Li (id:1392359)

朱晓琳 Xiaolin Zhu (id:1392360)

冯玮 (id:1460720)

◎标 签 喜剧 / 荒诞与现实 / 搞笑 / 大陆 / 人情冷暖 / 期待能早日上映 / 2018 / 电影

◎简 介

台湾青年初到大陆,因价值观与习惯不同,为一枚硬币的丢失,与老会计发生了一系列矛盾冲突,以及与女友之间发生一系列情感纠葛。由于阴差阳错和误入歧途,导致冲突步步升级,从最初的五分钱竟然升级到涉及几千万差点就是几千亿的债务纠纷……荒诞而又啼笑皆非的故事中,刻画出大量鲜活有趣的人物形象。在贯穿始终的幽默搞笑中体现小人物的艰辛与人生冷暖。

  1. ##### MediaInfo ######

  2. General

  3. Complete name : 任性的硬币[email protected]

  4. Format : MPEG-4

  5. Format profile : Base Media

  6. Codec ID : isom (isom/iso2/mp41)

  7. File size : 18.1 GiB

  8. Duration : 1 h 26 min

  9. Overall bit rate : 29.9 Mb/s

  10. Writing application : OurTV Multimedia Platform


  11. Video

  12. ID : 1

  13. Format : HEVC

  14. Format/Info : High Efficiency Video Coding

  15. Format profile : [email protected]@High

  16. Codec ID : hev1

  17. Codec ID/Info : High Efficiency Video Coding

  18. Duration : 1 h 26 min

  19. Bit rate : 29.5 Mb/s

  20. Width : 3 840 pixels

  21. Height : 2 160 pixels

  22. Display aspect ratio : 16:9

  23. Frame rate mode : Constant

  24. Frame rate : 25.000 FPS

  25. Color space : YUV

  26. Chroma subsampling : 4:2:0

  27. Bit depth : 8 bits

  28. Bits/(Pixel*Frame) : 0.142

  29. Stream size : 17.9 GiB (99%)

  30. Writing library : PONTUS-series

  31. Color range : Limited

  32. Codec configuration box : hvcC


  33. Audio

  34. ID : 2

  35. Format : AC-3

  36. Format/Info : Audio Coding 3

  37. Commercial name : Dolby Digital

  38. Codec ID : ac-3

  39. Duration : 1 h 26 min

  40. Bit rate mode : Constant

  41. Bit rate : 384 kb/s

  42. Channel(s) : 2 channels

  43. Channel layout : L R

  44. Sampling rate : 48.0 kHz

  45. Frame rate : 31.250 FPS (1536 SPF)

  46. Compression mode : Lossy

  47. Stream size : 239 MiB (1%)

  48. Service kind : Complete Main

  49. Default : Yes

  50. Alternate group : 1


文件下载


除非特别注明,本文『任性的硬币[中文字幕].The.Coin.2018.2160p.WEB-DL.H265.DD2.0-bt9527.cc 18.15GB』来源于互联网机器人自动抓取,非本站原创。 浮游电影网不对本文拥有版权,如有侵犯,请联系邮箱:fuyouu#yandex.com[#换成@]投诉。我们会在15个工作日内删除。 但烦请转载时请标明出处:“本文转载于『浮游电影网』,原文地址:https://www.fuyouu.com/18901.html

评论吧骚年!

发表你的见解   

昵称*

E-mail*(建议输入,以便收到博主回复的提示邮件)

验证码*

您可以使用eMule或eMule Mod(Windows)、aMule(Win、Linux、Mac)等软件下载eD2k链接。。
eMule收藏集(.emulecollection)文件是您选中的所有链接的列表文件。eMule可以直接下载它们。
按住SHIFT键选择可以选中多个选择框。
可用文件名和大小选择器来选择文件。
文件名选择器帮您根据文件名称或后缀来选择文件。不分大小写。
符号使用:
和:空格( )、+
不包含:-
或:|
转义:一对英文引号("");
匹配开头:^
匹配结尾:$
例如:
选中所有名称中包含有“eMule”或“0.49c”字眼,但不包含有“exe”字眼的:emule|0.49c -exe
选中所有名称的开头是“eMule”,结尾是“0.49c”的:^emule 0.49c$
选中所有名称中带有“eMule 0.49c”的(必须是“eMule 0.49c”,中间没有别的字符,不能是“eMule fake 0.49c”),需要转义:"emule 0.49c"
大小选择器帮您根据文件大小选择文件。