当前位置: 首页 >> 日韩电视剧 >> [地狱公使.Hellbound][全6集][韩英双语内封简繁多国软字幕.无水印][WEB-MKV][1080P][AGLET][网飞双版] >> 正文

[地狱公使.Hellbound][全6集][韩英双语内封简繁多国软字幕.无水印][WEB-MKV][1080P][AGLET][网飞双版]

2021年11月20日 09:38:15     电影发布:来源于网络     电影分类:日韩电视剧     评论(0)    

[地狱公使.Hellbound][全6集][韩英双语内封简繁多国软字幕.无水印][WEB MKV][1080P][AGLET][网飞双版] 悬疑片 奇幻片 恐怖片 剧情片 日韩电视剧  第1张


◎译 名 地狱公使 / Hellbound / Jiok / 地狱 / 地狱使者

◎片 名 지옥

◎年 代 2021

◎产 地 韩国

◎类 别 剧情 / 悬疑 / 恐怖 / 奇幻

◎语 言 韩语

◎上映日期 2021-11-19(韩国)

◎IMDb评分 7.3/10 from 160 users

◎IMDb链接 https://www.imdb.com/title/tt12235718

◎豆瓣评分 0/10 from 0 users

◎豆瓣链接 https://movie.douban.com/subject/34974555

◎集 数 6

◎片 长 60分钟

◎导 演 延尚昊 Sang-ho Yeon

◎编 剧 崔圭硕 Choi Kyu Seok / 延尚昊 Sang-ho Yeon

◎主 演 刘亚仁 Ah-in Yoo

金贤珠 Hyun-joo Kim

朴正民 Jeong-min Park

元真儿 Jin-ah Won

梁益准 Yang Ik-Joon

刘庆秀 Ryoo Kyung-soo

金度允 Do-yoon Kim

李来 Re Lee

金信禄 Shinrok Kim

切斯·玛瑟尔 Chase Maser

元美媛 Mi-won Won

金圭白 Kim Kyu Baek

朴相勋 Sang-hoon Park


◎标 签 Netflix | 韩剧 | 惊悚 | 灵异 | 漫改 | 丧尸 | 犯罪 | 动作


◎简 介


本片将讲述人类社会突然遭遇地狱使者将人送往地狱的超自然现象而陷入混乱,一个神秘的宗教团体趁势崛起,主人公们探寻这一系列事件背后真相的故事。


[地狱公使.Hellbound][全6集][韩英双语内封简繁多国软字幕.无水印][WEB MKV][1080P][AGLET][网飞双版] 悬疑片 奇幻片 恐怖片 剧情片 日韩电视剧  第2张

[地狱公使.Hellbound][全6集][韩英双语内封简繁多国软字幕.无水印][WEB MKV][1080P][AGLET][网飞双版] 悬疑片 奇幻片 恐怖片 剧情片 日韩电视剧  第3张

[地狱公使.Hellbound][全6集][韩英双语内封简繁多国软字幕.无水印][WEB MKV][1080P][AGLET][网飞双版] 悬疑片 奇幻片 恐怖片 剧情片 日韩电视剧  第4张


Video

ID : 1

Format : AVC

Format/Info : Advanced Video Codec

Format profile : [email protected]

Format settings : CABAC / 4 Ref Frames

Format settings, CABAC : Yes

Format settings, Reference frames : 4 frames

Codec ID : V_MPEG4/ISO/AVC

Duration : 1 h 0 min

Bit rate mode : Variable

Bit rate : 4 591 kb/s

Maximum bit rate : 20.0 Mb/s

Width : 1 920 pixels

Height : 1 080 pixels

Display aspect ratio : 16:9

Frame rate mode : Constant

Frame rate : 23.976 (24000/1001) FPS

Color space : YUV

Chroma subsampling : 4:2:0

Bit depth : 8 bits

Scan type : Progressive

Bits/(Pixel*Frame) : 0.092

Stream size : 1.93 GiB (75%)

Writing library : x264 core 148 r2724 dbe0335

Encoding settings : cabac=1 / ref=4 / deblock=1:0:0 / analyse=0x3:0x111 / me=umh / subme=10 / psy=1 / psy_rd=1.00:0.00 / mixed_ref=1 / me_range=120 / chroma_me=1 / trellis=2 / 8x8dct=1 / cqm=0 / deadzone=21,11 / fast_pskip=1 / chroma_qp_offset=-2 / threads=8 / lookahead_threads=2 / sliced_threads=0 / nr=0 / decimate=1 / interlaced=0 / bluray_compat=0 / stitchable=1 / constrained_intra=0 / bframes=16 / b_pyramid=2 / b_adapt=2 / b_bias=0 / direct=3 / weightb=1 / open_gop=0 / weightp=2 / keyint=240 / keyint_min=121 / scenecut=0 / intra_refresh=0 / rc_lookahead=240 / rc=crf / mbtree=1 / crf=16.0 / qcomp=0.50 / qpmin=6 / qpmax=51 / qpstep=4 / vbv_maxrate=20000 / vbv_bufsize=25000 / crf_max=0.0 / nal_hrd=vbr / filler=0 / ip_ratio=1.40 / aq=1:0.80

Default : Yes

Forced : No

Audio #1

ID : 2

Format : E-AC-3 JOC

Format/Info : Enhanced AC-3 with Joint Object Coding

Commercial name : Dolby Digital Plus with Dolby Atmos

Codec ID : A_EAC3

Duration : 1 h 0 min

Bit rate mode : Constant

Bit rate : 768 kb/s

Channel(s) : 6 channels

Channel layout : L R C LFE Ls Rs

Sampling rate : 48.0 kHz

Frame rate : 31.250 FPS (1536 SPF)

Compression mode : Lossy

Stream size : 331 MiB (13%)

Language : Korean

Service kind : Complete Main

Default : Yes

Forced : No

Complexity index : 16

Number of dynamic objects : 15

Bed channel count : 1 channel

Bed channel configuration : LFE

Audio #2

ID : 3

Format : E-AC-3 JOC

Format/Info : Enhanced AC-3 with Joint Object Coding

Commercial name : Dolby Digital Plus with Dolby Atmos

Codec ID : A_EAC3

Duration : 1 h 0 min

Bit rate mode : Constant

Bit rate : 768 kb/s

Channel(s) : 6 channels

Channel layout : L R C LFE Ls Rs

Sampling rate : 48.0 kHz

Frame rate : 31.250 FPS (1536 SPF)

Compression mode : Lossy

Stream size : 331 MiB (13%)

Language : English

Service kind : Complete Main

Default : No

Forced : No

Complexity index : 16

Number of dynamic objects : 15

Bed channel count : 1 channel

Bed channel configuration : LFE


......


Text #34

ID : 37

Format : UTF-8

Codec ID : S_TEXT/UTF8

Codec ID/Info : UTF-8 Plain Text

Duration : 58 min 28 s

Bit rate : 40 b/s

Count of elements : 554

Stream size : 17.3 KiB (0%)

Title : Simplified

Language : Chinese

Default : No

Forced : No

Text #35

ID : 38

Format : UTF-8

Codec ID : S_TEXT/UTF8

Codec ID/Info : UTF-8 Plain Text

Duration : 58 min 28 s

Bit rate : 40 b/s

Count of elements : 566

Stream size : 17.5 KiB (0%)

Title : Traditional

Language : Chinese

Default : No

Forced : No


种子请使用专业BT下载工具:

UT,Bitcomet,qBittorrent,Xdown开启上传后再下载!!!

使用迅雷或度盘离线可能会没速度!!!




文件下载


除非特别注明,本文『[地狱公使.Hellbound][全6集][韩英双语内封简繁多国软字幕.无水印][WEB-MKV][1080P][AGLET][网飞双版]』来源于互联网机器人自动抓取,非本站原创。 浮游电影网不对本文拥有版权,如有侵犯,请联系邮箱:fuyouu#yandex.com[#换成@]投诉。我们会在15个工作日内删除。 但烦请转载时请标明出处:“本文转载于『浮游电影网』,原文地址:https://www.fuyouu.com/18899.html

评论吧骚年!

发表你的见解   

昵称*

E-mail*(建议输入,以便收到博主回复的提示邮件)

验证码*

您可以使用eMule或eMule Mod(Windows)、aMule(Win、Linux、Mac)等软件下载eD2k链接。。
eMule收藏集(.emulecollection)文件是您选中的所有链接的列表文件。eMule可以直接下载它们。
按住SHIFT键选择可以选中多个选择框。
可用文件名和大小选择器来选择文件。
文件名选择器帮您根据文件名称或后缀来选择文件。不分大小写。
符号使用:
和:空格( )、+
不包含:-
或:|
转义:一对英文引号("");
匹配开头:^
匹配结尾:$
例如:
选中所有名称中包含有“eMule”或“0.49c”字眼,但不包含有“exe”字眼的:emule|0.49c -exe
选中所有名称的开头是“eMule”,结尾是“0.49c”的:^emule 0.49c$
选中所有名称中带有“eMule 0.49c”的(必须是“eMule 0.49c”,中间没有别的字符,不能是“eMule fake 0.49c”),需要转义:"emule 0.49c"
大小选择器帮您根据文件大小选择文件。